<?xml version="1.0" standalone="no"?>
<!DOCTYPE svg PUBLIC "-//W3C//DTD SVG 1.1//EN" "http://www.w3.org/Graphics/SVG/1.1/DTD/svg11.dtd" >
<svg xmlns="http://www.w3.org/2000/svg" xmlns:xlink="http://www.w3.org/1999/xlink" version="1.1">
<metadata>
Created by FontForge 20201107 at Tue Mar 27 12:24:29 2012
 By 
</metadata>
<defs>
<font id="ALKSanet" horiz-adv-x="1139" >
  <font-face 
    font-family="ALK Sanet"
    font-weight="400"
    font-stretch="normal"
    units-per-em="2048"
    panose-1="2 0 5 6 0 0 0 2 0 4"
    ascent="1638"
    descent="-410"
    x-height="1471"
    cap-height="1474"
    bbox="-158 -217 1865 1653"
    underline-thickness="50"
    underline-position="-125"
    unicode-range="U+0020-10F0"
  />
<missing-glyph horiz-adv-x="846" 
 />
    <glyph glyph-name=".notdef" horiz-adv-x="846" 
 />
    <glyph glyph-name=".null" horiz-adv-x="0" 
 />
    <glyph glyph-name="nonmarkingreturn" horiz-adv-x="682" 
 />
    <glyph glyph-name="space" unicode=" " horiz-adv-x="846" 
 />
    <glyph glyph-name="exclam" unicode="!" horiz-adv-x="416" 
d="M303 44q0 -26 -18 -44t-44 -18h-94q-26 0 -44 18t-18 44v96q0 26 18 44t44 18h94q26 0 44 -18t18 -44v-96zM309 1529q9 -9 9 -22l-19 -1093q0 -13 -9 -22t-22 -9h-148q-13 0 -21.5 9t-9.5 22l-19 1093q0 13 9 22t22 9h187q13 0 21 -9z" />
    <glyph glyph-name="quotedbl" unicode="&#x22;" horiz-adv-x="819" 
d="M262 1493q25 0 43 -18t18 -44v-193q0 -32 -12 -60t-33 -49t-49 -33t-59 -12q-8 0 -14 6t-6 14v82q0 8 6 14.5t14 6.5q13 0 22 8.5t9 22.5v35h-34q-25 0 -43 18t-18 44v96q0 26 18 44t43 18h95zM597 1493q25 0 43 -18t18 -44v-193q0 -32 -12 -60t-33 -49t-49 -33t-59 -12
q-8 0 -14 6t-6 14v82q0 8 6 14.5t14 6.5q13 0 22 8.5t9 22.5v35h-34q-25 0 -43 18t-18 44v96q0 26 18 44t43 18h95z" />
    <glyph glyph-name="numbersign" unicode="#" horiz-adv-x="1966" 
d="M1482 1491q67 0 126 -25.5t103 -69.5t69.5 -102.5t25.5 -125.5v-143q0 -67 -25.5 -125.5t-69.5 -102.5t-103 -69.5t-126 -25.5t-125.5 25.5t-102.5 69.5t-69.5 102.5t-25.5 125.5v143q0 67 25.5 125.5t69.5 102.5t102.5 69.5t125.5 25.5zM1628 1182q0 30 -11.5 56.5
t-31 46t-46.5 31t-57 11.5t-56.5 -11.5t-46 -31t-31 -46t-11.5 -56.5v-171q0 -30 11.5 -56.5t31 -46t46 -31t56.5 -11.5t57 11.5t46.5 31t31 46t11.5 56.5v171zM980 0h-178l-464 1072v-1072h-178v1474h178v-1l464 -1072v1073h178v-1474zM1159 536h647v-165h-647v165z" />
    <glyph glyph-name="dollar" unicode="$" 
d="M657 862q67 0 126 -25.5t102.5 -69t69 -102t25.5 -125.5v-237q0 -67 -25.5 -126t-69 -102.5t-102.5 -69t-126 -25.5h-15v-164h-144v164h-15q-67 0 -125.5 25.5t-102.5 69t-69.5 102.5t-25.5 126v167h178v-182q0 -30 11.5 -56.5t31 -46t46 -30.5t56.5 -11h15v555
q-66 1 -124 27t-101 69.5t-68 102t-25 125.5v143q0 66 25 124.5t68 102t101 69t124 26.5v165h144v-165q66 -1 124 -26.5t100.5 -69t67.5 -102t25 -124.5v-166h-177v180q0 29 -11 55t-30 46t-44.5 31.5t-54.5 12.5v-463h15zM358 1009q0 -29 11 -55t29.5 -46t44 -32t55.5 -13
v462q-30 -1 -55.5 -12.5t-44 -31.5t-29.5 -46t-11 -55v-171zM802 554q0 30 -11.5 56.5t-31 46t-46 31t-56.5 11.5h-15v-555h15q30 0 56.5 11t46 30.5t31 46t11.5 56.5v266z" />
    <glyph glyph-name="percent" unicode="%" horiz-adv-x="1323" 
d="M1032 1501l-631 -1501h-198l641 1501h188zM1057 295v203q0 13 -11.5 27t-29.5 14h-60q-17 0 -29 -14t-12 -27v-203q0 -21 11.5 -31t29.5 -10h60q41 0 41 41zM1229 315q0 -83 -41.5 -143.5t-140.5 -60.5h-121q-88 0 -136.5 67t-48.5 137v162q0 43 24.5 91.5t67.5 80
t93 31.5h121q48 0 90.5 -31.5t67 -80t24.5 -91.5v-162zM385 1122v203q0 15 -11 28t-30 13h-59q-18 0 -29.5 -14t-11.5 -27v-203q0 -19 11 -30t30 -11h59q41 0 41 41zM557 1143q0 -83 -41.5 -144t-140.5 -61h-121q-87 0 -135.5 67t-48.5 138v162q0 46 24 92.5t67 78t93 31.5
h121q48 0 90.5 -31.5t67 -79.5t24.5 -91v-162z" />
    <glyph glyph-name="ampersand" unicode="&#x26;" horiz-adv-x="1366" 
d="M973 172q-88 -98 -195 -147q-104 -50 -225 -50q-225 0 -358 152q-107 125 -107 276q0 138 88 246q86 111 260 193q-98 114 -131 184q-33 72 -33 137q0 133 105 232q102 96 260 96q149 0 246 -92q94 -92 94 -221q0 -209 -277 -357l263 -336q45 88 69 205l189 -41
q-50 -190 -131 -315q102 -133 229 -225l-121 -144q-108 72 -225 207zM606 938q119 68 154 121q33 51 33 115q0 73 -48 122q-47 47 -118 47q-72 0 -121 -47t-49 -114q0 -35 18 -72q17 -39 51 -80zM860 315l-330 410q-145 -88 -196 -162q-51 -76 -51 -147q0 -90 69 -187
q72 -94 203 -94q80 0 168 49q86 52 137 131z" />
    <glyph glyph-name="quotesingle" unicode="'" horiz-adv-x="496" 
d="M262 1493q25 0 43 -18t18 -44v-193q0 -32 -12 -60t-33 -49t-49 -33t-59 -12q-8 0 -14 6t-6 14v82q0 8 6 14.5t14 6.5q13 0 22 8.5t9 22.5v35h-34q-25 0 -43 18t-18 44v96q0 26 18 44t43 18h95v0z" />
    <glyph glyph-name="parenleft" unicode="(" horiz-adv-x="705" 
d="M111 762q0 311 147 551q96 153 264 284l90 -90q-61 -61 -125 -123q-98 -104 -151 -233q-76 -180 -76 -420q0 -235 107 -448q98 -201 245 -297l-73 -121q-254 190 -359 469q-69 190 -69 428z" />
    <glyph glyph-name="parenright" unicode=")" horiz-adv-x="705" 
d="M428 731q0 273 -113 488q-92 182 -235 274l76 121q180 -115 301 -332q141 -254 141 -551q0 -258 -106 -483q-115 -250 -322 -369l-76 107q172 131 256 315q78 170 78 371v59z" />
    <glyph glyph-name="asterisk" unicode="*" horiz-adv-x="950" 
d="M354 1139l-245 114l71 131l232 -174l-29 289h147l-28 -289l229 174l74 -131l-246 -114l246 -133l-74 -115l-215 143l14 -260h-147l14 260l-217 -143l-71 115z" />
    <glyph glyph-name="plus" unicode="+" horiz-adv-x="1116" 
d="M76 569v146h368v368h146v-368h358v-146h-358v-368h-146v368h-368z" />
    <glyph glyph-name="comma" unicode="," horiz-adv-x="496" 
d="M285 202q25 0 43 -18t18 -44v-193q0 -32 -12 -60t-33 -48.5t-49 -32.5t-59 -12q-8 0 -14 6t-6 14v81q0 8 6 14.5t14 6.5q13 0 22 8.5t9 22.5v35h-34q-25 0 -43 18t-18 44v96q0 26 18 44t43 18h95v0z" />
    <glyph glyph-name="hyphen" unicode="-" horiz-adv-x="1057" 
d="M86 870h883v-153h-883v153z" />
    <glyph glyph-name="period" unicode="." horiz-adv-x="496" 
d="M346 43q0 -26 -18 -43.5t-44 -17.5h-94q-26 0 -43.5 17.5t-17.5 43.5v96q0 26 17.5 44t43.5 18h94q26 0 44 -18t18 -44v-96z" />
    <glyph glyph-name="slash" unicode="/" horiz-adv-x="496" 
d="M657 1546l-622 -1556h-146l611 1556h157z" />
    <glyph glyph-name="zero" unicode="0" 
d="M655 1491q67 0 126 -25.5t103 -69t69.5 -102.5t25.5 -126v-862q0 -67 -25.5 -126t-69.5 -103t-103 -69.5t-126 -25.5h-173q-67 0 -126 25.5t-103 69.5t-69.5 103t-25.5 126v862q0 67 25.5 126t69.5 102.5t103 69t126 25.5h173zM801 1182q0 30 -11.5 57t-31 46.5t-46.5 31
t-57 11.5h-173q-30 0 -57 -11.5t-46.5 -31t-31 -46.5t-11.5 -57v-891q0 -30 11.5 -56.5t31 -46t46.5 -31t57 -11.5h173q30 0 57 11.5t46.5 31t31 46t11.5 56.5v891z" />
    <glyph glyph-name="one" unicode="1" horiz-adv-x="712" 
d="M374 0v1127h-260v130h20q45 0 92 7t87.5 27t71.5 56.5t44 96.5v25h123v-1469h-178z" />
    <glyph glyph-name="two" unicode="2" 
d="M645 1492q67 0 126 -25.5t102.5 -69.5t69 -103t25.5 -126v-224q0 -67 -25.5 -126t-69 -103t-102.5 -69.5t-126 -25.5h-153q-30 0 -57 -11.5t-46.5 -31t-31 -46t-11.5 -56.5v-311h622v-163h-800v163v296q0 67 25.5 126t69.5 103t103 69.5t126 25.5h153q30 0 56.5 11.5
t46 31t31 46t11.5 56.5v253q0 30 -11.5 57t-31 46.5t-46 31t-56.5 11.5h-133q-30 0 -56.5 -11.5t-46 -31t-31 -46.5t-11.5 -57v-180h-178v166q0 67 25.5 126t69.5 103t102.5 69.5t125.5 25.5h133v0z" />
    <glyph glyph-name="three" unicode="3" 
d="M857 809q18 -8 39.5 -31t40 -56.5t30.5 -75t12 -86.5v-254q0 -67 -25.5 -126t-69.5 -103t-103 -69.5t-126 -25.5h-173q-67 0 -126 25.5t-103 69.5t-69.5 103t-25.5 126v168h178v-183q0 -30 11.5 -56t31 -46t46.5 -31.5t57 -11.5h173q30 0 56.5 11.5t46.5 31.5t31.5 46
t11.5 56v283q0 30 -11.5 56.5t-31.5 46t-46.5 31t-56.5 11.5l-142 4v163l122 -3q30 0 56.5 11.5t46 31.5t31 46.5t11.5 56.5v153q0 30 -11.5 57t-31 46.5t-46 31t-56.5 11.5h-133q-30 0 -56.5 -11.5t-46 -31t-31 -46.5t-11.5 -57v-182h-178v168q0 67 25.5 126t69.5 103
t102.5 69.5t125.5 25.5h133q67 0 126 -25.5t102.5 -69.5t69 -103t25.5 -126v-125q0 -69 -26.5 -129.5t-74.5 -104.5z" />
    <glyph glyph-name="four" unicode="4" 
d="M980 1471v-1472h-178v702q-55 -1 -111.5 -1h-102.5h-105q-67 0 -126 25.5t-103 69.5t-69.5 103t-25.5 126v447h179v-462q0 -30 11.5 -56.5t31 -46t46 -31t56.5 -11.5h319v607h178z" />
    <glyph glyph-name="five" unicode="5" 
d="M358 1308v-378q68 34 145 34h153q67 0 126 -25.5t103 -69t69.5 -102.5t25.5 -126v-62v-274q0 -67 -25.5 -126t-69.5 -103t-103 -69.5t-126 -25.5h-173q-67 0 -126 25.5t-103 69.5t-69.5 103t-25.5 126v167h178v-182q0 -30 11.5 -56t31.5 -46t46.5 -31.5t56.5 -11.5h173
q30 0 57 11.5t46.5 31.5t31 46t11.5 56v289v76q0 30 -11.5 56.5t-31 46t-46.5 31t-57 11.5h-153q-30 0 -56.5 -11.5t-46 -31t-31 -46t-11.5 -56.5v-14h-178v831h800v-164h-622z" />
    <glyph glyph-name="six" unicode="6" 
d="M158 1168q0 67 25.5 126t69.5 103t103 69.5t126 25.5h153q67 0 126 -25.5t103 -69.5t69.5 -103t25.5 -126v-86h-179v100q0 30 -11.5 57t-31 46.5t-46 31t-56.5 11.5h-153q-30 0 -56.5 -11.5t-46.5 -31t-31.5 -46.5t-11.5 -57v-362q10 14 27 25.5t37 20t41 13t41 4.5h173
q67 0 126 -25.5t103 -69t69.5 -102.5t25.5 -126v-254q0 -67 -25.5 -126t-69.5 -103t-103 -69.5t-126 -25.5h-173q-67 0 -126 25.5t-103 69.5t-69.5 103t-25.5 126v254v608zM336 291q0 -30 11.5 -56t31.5 -46t46.5 -31.5t56.5 -11.5h173q30 0 57 11.5t46.5 31.5t31 46
t11.5 56v283q0 30 -11.5 56.5t-31 46t-46.5 31t-57 11.5h-173q-30 0 -56.5 -11.5t-46.5 -31t-31.5 -46t-11.5 -56.5v-283z" />
    <glyph glyph-name="seven" unicode="7" 
d="M978 1475v-191l-561 -1281h-195l574 1308h-639v164h821z" />
    <glyph glyph-name="eight" unicode="8" 
d="M858 809q18 -8 39 -31t39.5 -56.5t30.5 -75t12 -86.5v-254q0 -67 -25.5 -126t-69.5 -103t-103 -69.5t-126 -25.5h-173q-67 0 -126 25.5t-103 69.5t-69.5 103t-25.5 126v254q0 45 12 86.5t30.5 75t40 56.5t39.5 31q-47 44 -74 104.5t-27 129.5v125q0 67 25.5 126t69.5 103
t102.5 69.5t125.5 25.5h133q67 0 126 -25.5t102.5 -69.5t69 -103t25.5 -126v-125q0 -69 -26.5 -129.5t-73.5 -104.5zM357 1029q0 -30 11.5 -56.5t31 -46.5t46 -31.5t56.5 -11.5h133q30 0 56.5 11.5t46 31.5t31 46.5t11.5 56.5v153q0 30 -11.5 57t-31 46.5t-46 31t-56.5 11.5
h-133q-30 0 -56.5 -11.5t-46 -31t-31 -46.5t-11.5 -57v-153zM801 574q0 30 -11.5 56.5t-31 46t-46.5 31t-57 11.5h-173q-30 0 -57 -11.5t-46.5 -31t-31 -46t-11.5 -56.5v-283q0 -30 11.5 -56t31 -46t46.5 -31.5t57 -11.5h173q30 0 57 11.5t46.5 31.5t31 46t11.5 56v283z" />
    <glyph glyph-name="nine" unicode="9" 
d="M979 306q0 -67 -25.5 -126t-69.5 -103t-103 -69.5t-126 -25.5h-173q-67 0 -126 25.5t-103 69.5t-69.5 103t-25.5 126v86h178v-101q0 -30 11.5 -56t31.5 -46t46.5 -31.5t56.5 -11.5h173q30 0 57 11.5t46.5 31.5t31 46t11.5 56v363q-11 -14 -27.5 -25.5t-36 -20t-41 -13.5
t-41.5 -5h-173q-67 0 -126 25.5t-103 69.5t-69.5 103t-25.5 126v254q0 67 25.5 126t69.5 103t103 69.5t126 25.5h173q67 0 126 -25.5t103 -69.5t69.5 -103t25.5 -126v-254v-608zM801 1182q0 30 -11.5 57t-31 46.5t-46.5 31t-57 11.5h-173q-30 0 -56.5 -11.5t-46.5 -31
t-31.5 -46.5t-11.5 -57v-282q0 -30 11.5 -56.5t31.5 -46.5t46.5 -31.5t56.5 -11.5h173q30 0 57 11.5t46.5 31.5t31 46.5t11.5 56.5v282z" />
    <glyph glyph-name="colon" unicode=":" horiz-adv-x="496" 
d="M346 1002q0 -26 -18 -44t-43 -18h-95q-25 0 -43 18t-18 44v96q0 26 18 43.5t43 17.5h95q25 0 43 -17.5t18 -43.5v-96zM346 43q0 -26 -18 -43.5t-43 -17.5h-95q-25 0 -43 17.5t-18 43.5v96q0 26 18 44t43 18h95q25 0 43 -18t18 -44v-96z" />
    <glyph glyph-name="semicolon" unicode=";" horiz-adv-x="496" 
d="M346 1002q0 -26 -18 -44t-43 -18h-95q-25 0 -43 18t-18 44v96q0 26 18 43.5t43 17.5h95q25 0 43 -17.5t18 -43.5v-96zM284 201h-94q-26 0 -44 -18t-18 -44v-96q0 -26 18 -43.5t44 -17.5h34v-46q0 -14 -9 -23t-23 -9q-8 0 -14 -6t-6 -15v-80q0 -8 6 -14t14 -6q32 0 60 12
t49 32.5t33 48.5t12 60v107v96q0 26 -18 44t-44 18z" />
    <glyph glyph-name="less" unicode="&#x3c;" horiz-adv-x="1116" 
d="M90 672v147l887 389v-157l-698 -308l698 -303v-143z" />
    <glyph glyph-name="equal" unicode="=" horiz-adv-x="1057" 
d="M86 657h883v-153h-883v153zM86 977h883v-154h-883v154z" />
    <glyph glyph-name="greater" unicode="&#x3e;" horiz-adv-x="1116" 
d="M801 758l-697 307v158l887 -389v-148l-887 -389v158z" />
    <glyph glyph-name="question" unicode="?" horiz-adv-x="881" 
d="M375 44q0 -26 -18 -44t-44 -18h-95q-25 0 -43.5 18t-18.5 44v96q0 26 18.5 44t43.5 18h95q26 0 44 -18t18 -44v-96zM744 1457q49 -49 74.5 -111t25.5 -131v-143q0 -69 -25.5 -131.5t-74.5 -110.5q-49 -49 -111 -74.5t-131 -25.5q-26 0 -49.5 -10t-40.5 -27.5t-27 -40.5
t-10 -49v-202q0 -8 -5 -13.5t-13 -5.5h-178q-8 0 -13.5 5.5t-5.5 13.5v188q0 70 27 132q25 61 73 109q49 49 111 74.5t131 25.5q26 0 49 10t40.5 27.5t27.5 41t10 49.5v171q0 26 -10 49t-27.5 40.5t-40.5 27.5t-49 10h-132q-26 0 -49.5 -10t-41 -27.5t-27.5 -40.5t-10 -49
v-121q0 -8 -5 -13.5t-13 -5.5h-178q-8 0 -13.5 5.5t-5.5 13.5v107q0 69 26 131t75 111q48 48 110.5 73.5t131.5 25.5h132q69 0 131 -25.5t111 -73.5z" />
    <glyph glyph-name="at" unicode="@" horiz-adv-x="1491" 
d="M78 668l-4 26q0 260 184 463q199 219 500 219q332 0 512 -205q135 -157 135 -354q0 -133 -31 -221q-35 -88 -117 -186q-65 -66 -133 -101q-67 -39 -145 -39l-41 4q-39 0 -61 21q-29 27 -29 84q-37 -47 -90 -74q-53 -31 -121 -31q-119 0 -201 70q-92 80 -92 219l6 29
q0 178 105 319q120 164 319 164q72 0 133 -45q54 -37 80 -92l29 109h135l-150 -560q0 -86 50 -86q63 0 137 109q86 123 98 278v21q0 160 -125 293q-149 155 -387 155q-188 0 -354 -135q-207 -166 -207 -440l-2 -27q0 -247 197 -409q170 -142 368 -142l27 5q131 0 254 61
q121 61 155 135h150q-102 -149 -203 -215q-151 -100 -385 -100q-332 0 -530 225q-170 191 -170 422zM922 743v25q0 68 -41 113q-45 41 -107 41q-102 0 -180 -101q-76 -100 -76 -229q0 -88 47 -137q39 -45 103 -45q88 0 172 110q82 109 82 223z" />
    <glyph glyph-name="A" unicode="A" horiz-adv-x="1032" 
d="M891 4v-4h-167l-116 554h-255l-116 -554h-167v4l327 1468h168zM574 719l-93 447l-94 -447h187z" />
    <glyph glyph-name="B" unicode="B" 
d="M857 808q18 -7 39.5 -30t39.5 -56.5t30 -75t12 -86.5v-236q0 -67 -25.5 -126t-69 -102.5t-102.5 -69t-126 -25.5h-497v1472h476q67 0 126 -25.5t103 -69.5t69.5 -103t25.5 -126v-106q0 -69 -27 -129.5t-74 -105.5zM336 885l298 -2q30 0 56.5 11.5t46.5 31t31.5 46.5
t11.5 57v135q0 30 -11.5 56.5t-31.5 46t-46.5 31t-56.5 11.5h-298v-424zM800 574q0 30 -11.5 56.5t-31 46t-46 31t-56.5 11.5l-319 2v-557h319q30 0 56.5 11.5t46 31t31 46.5t11.5 57v264z" />
    <glyph glyph-name="C" unicode="C" 
d="M979 473v-168q0 -67 -25.5 -126t-69 -103t-102.5 -69.5t-126 -25.5h-174q-67 0 -126 25.5t-103 69.5t-69.5 103t-25.5 126v862q0 67 25.5 126t69.5 102.5t103 69t126 25.5h174q67 0 126 -25.5t102.5 -69t69 -102.5t25.5 -126v-166h-178v180q0 30 -11.5 57t-31 46.5
t-46 31t-56.5 11.5h-174q-30 0 -56.5 -11.5t-46.5 -31t-31.5 -46.5t-11.5 -57v-891q0 -30 11.5 -56.5t31.5 -46t46.5 -31t56.5 -11.5h174q30 0 56.5 11.5t46 31t31 46t11.5 56.5v183h178z" />
    <glyph glyph-name="D" unicode="D" 
d="M655 1473q67 0 126 -25.5t103 -69.5t69.5 -103t25.5 -126v-825q0 -67 -25.5 -126t-69.5 -102.5t-103 -69t-126 -25.5h-497v1474zM801 1164q0 30 -11.5 56.5t-31.5 46t-46.5 31t-56.5 11.5h-319v-1145h319q30 0 56.5 11.5t46.5 31t31.5 46.5t11.5 57v854z" />
    <glyph glyph-name="E" unicode="E" 
d="M336 1308v-426h462v-165h-462v-552h643v-165h-822v1474h822v-166h-643z" />
    <glyph glyph-name="F" unicode="F" 
d="M336 1308v-426h462v-165h-462l-1 -717h-178v1474h822v-166h-643z" />
    <glyph glyph-name="G" unicode="G" 
d="M801 1002v180q0 30 -11.5 57t-31 46.5t-46.5 31t-57 11.5h-173q-30 0 -57 -11.5t-46.5 -31t-31 -46.5t-11.5 -57v-891q0 -30 11.5 -56.5t31 -46t46.5 -31t57 -11.5h173q30 0 57 11.5t46.5 31t31 46t11.5 56.5v247h-268v163h268h178v-163v-232q0 -67 -25.5 -126
t-69.5 -103t-103 -69.5t-126 -25.5h-173q-67 0 -126 25.5t-103 69.5t-69.5 103t-25.5 126v862q0 67 25.5 126t69.5 102.5t103 69t126 25.5h173q67 0 126 -25.5t103 -69t69.5 -102.5t25.5 -126v-166h-178z" />
    <glyph glyph-name="H" unicode="H" 
d="M977 1475v-1474h-178v717h-464v-717h-178v1474h178v-592h464v592h178z" />
    <glyph glyph-name="I" unicode="I" horiz-adv-x="494" 
d="M336 0h-178v1474h178v-1474z" />
    <glyph glyph-name="J" unicode="J" horiz-adv-x="1098" 
d="M938 1473v-1167q0 -67 -25.5 -126t-69.5 -103t-103 -69.5t-126 -25.5h-132q-67 0 -126 25.5t-103 69.5t-69.5 103t-25.5 126v168h178v-183q0 -30 11.5 -56.5t31 -46t46.5 -31t57 -11.5h132q30 0 56.5 11.5t46.5 31t31.5 46t11.5 56.5v1182h178z" />
    <glyph glyph-name="K" unicode="K" 
d="M568 862l411 -862h-204l-324 688l-115 -171v-517h-178v1472h178v-634l444 634h199z" />
    <glyph glyph-name="L" unicode="L" horiz-adv-x="1079" 
d="M979 165v-165h-821v1474h179v-1309h642z" />
    <glyph glyph-name="M" unicode="M" horiz-adv-x="1394" 
d="M1234 1472v-1472h-178v1241l-276 -1241h-168l-276 1241v-1241h-178v1472h294l244 -1166l243 1166h295z" />
    <glyph glyph-name="N" unicode="N" 
d="M979 0h-178l-465 1072v-1072h-178v1474h178v-1l465 -1073v1074h178v-1474z" />
    <glyph glyph-name="O" unicode="O" 
d="M655 1491q67 0 126 -25.5t103 -69t69.5 -102.5t25.5 -126v-862q0 -67 -25.5 -126t-69.5 -103t-103 -69.5t-126 -25.5h-173q-67 0 -126 25.5t-103 69.5t-69.5 103t-25.5 126v862q0 67 25.5 126t69.5 102.5t103 69t126 25.5h173zM801 1182q0 30 -11.5 57t-31 46.5t-46.5 31
t-57 11.5h-173q-30 0 -57 -11.5t-46.5 -31t-31 -46.5t-11.5 -57v-891q0 -30 11.5 -56.5t31 -46t46.5 -31t57 -11.5h173q30 0 57 11.5t46.5 31t31 46t11.5 56.5v891z" />
    <glyph glyph-name="P" unicode="P" horiz-adv-x="1106" 
d="M656 1472q67 0 126 -25.5t102.5 -69.5t69 -103t25.5 -126v-124q0 -67 -25.5 -126t-69 -103t-102.5 -69.5t-126 -25.5h-320v-700h-178v1472h178h320zM801 1163q0 30 -11.5 56.5t-31 46t-46 31t-56.5 11.5h-320v-444h320q30 0 56.5 11.5t46 31.5t31 46.5t11.5 56.5v153z
" />
    <glyph glyph-name="Q" unicode="Q" 
d="M938 -90l-118 118q-74 -45 -164 -45h-174q-67 0 -125.5 25.5t-102.5 69.5t-69.5 103t-25.5 126v862q0 67 25.5 126t69.5 102.5t102.5 69t125.5 25.5h174q67 0 126 -25.5t103 -69t69.5 -102.5t25.5 -126v-862q0 -50 -14 -95.5t-40 -83.5l115 -115zM656 147q30 0 56.5 11.5
t46 31t31 46t11.5 56.5v891q0 30 -11.5 57t-31 46.5t-46 31t-56.5 11.5h-174q-30 0 -56.5 -11.5t-46 -31t-31 -46.5t-11.5 -57v-891q0 -30 11.5 -56.5t31 -46t46 -31t56.5 -11.5h174z" />
    <glyph glyph-name="R" unicode="R" 
d="M979 983q0 -57 -18.5 -108t-51 -92t-77 -70.5t-96.5 -42.5l243 -670h-174l-240 660h-229v-660h-178v1472h178h319q67 0 126.5 -25.5t103 -69.5t69 -103t25.5 -126v-165zM801 1163q0 30 -11.5 56.5t-31 46t-46.5 31t-57 11.5h-319v-485h319q28 0 54.5 11.5t46.5 31
t32.5 46t12.5 57.5v194z" />
    <glyph glyph-name="S" unicode="S" 
d="M657 864q67 0 126 -25.5t102.5 -69.5t69 -102.5t25.5 -125.5v-236q0 -67 -25.5 -126t-69 -103t-102.5 -69.5t-126 -25.5h-174q-67 0 -125.5 25.5t-102.5 69.5t-69.5 103t-25.5 126v166h178v-181q0 -30 11.5 -56.5t31 -46t46 -31t56.5 -11.5h174q30 0 56.5 11.5t46 31
t31 46t11.5 56.5v265q0 30 -11.5 56.5t-31 46t-46 31t-56.5 11.5h-153q-67 0 -126 25.5t-103 69.5t-69.5 103t-25.5 126v143q0 67 25.5 126t69.5 102.5t103 69t126 25.5h132q67 0 126 -25.5t103 -69t69.5 -102.5t25.5 -126v-166h-178v180q0 30 -11.5 57t-31.5 46.5t-46.5 31
t-56.5 11.5h-132q-30 0 -57 -11.5t-46.5 -31t-31 -46.5t-11.5 -57v-171q0 -30 11.5 -56.5t31 -46.5t46.5 -31.5t57 -11.5h153v0z" />
    <glyph glyph-name="T" unicode="T" horiz-adv-x="1105" 
d="M960 1309h-311v-1308h-178v1308h-311v164h800v-164z" />
    <glyph glyph-name="U" unicode="U" 
d="M481 -18q-67 0 -126 25.5t-103 69.5t-69.5 103t-25.5 126v1167h178v-1182q0 -30 11.5 -56.5t31.5 -46t46.5 -31t56.5 -11.5h173q30 0 57 11.5t46.5 31t31 46t11.5 56.5v1182h178v-1167q0 -67 -25.5 -126t-69.5 -103t-103 -69.5t-126 -25.5h-173v0z" />
    <glyph glyph-name="V" unicode="V" horiz-adv-x="1068" 
d="M948 1472v-4l-327 -1468h-167l-327 1468v4h167l243 -1166l244 1166h167z" />
    <glyph glyph-name="W" unicode="W" horiz-adv-x="1555" 
d="M1435 1472v-4l-327 -1468h-167l-164 737l-164 -737h-168l-326 1468v4h167l243 -1166l166 797h163l166 -797l244 1166h167z" />
    <glyph glyph-name="X" unicode="X" 
d="M655 736l319 -736h-179l-229 529l-229 -529h-179l318 736l-318 736h179l229 -530l229 530h179z" />
    <glyph glyph-name="Y" unicode="Y" 
d="M979 1473l-319 -736v-736h-178v736l-319 736h179l229 -530l230 530h178z" />
    <glyph glyph-name="Z" unicode="Z" 
d="M981 1307l-614 -1145h615v-163h-800v163l614 1145h-614v164h800v-164h-1z" />
    <glyph glyph-name="bracketleft" unicode="[" horiz-adv-x="705" 
d="M205 -88v1687h321v-90h-161v-1507h161v-90h-321z" />
    <glyph glyph-name="backslash" unicode="\" horiz-adv-x="496" 
d="M-158 1546h158l610 -1556h-145z" />
    <glyph glyph-name="bracketright" unicode="]" horiz-adv-x="705" 
d="M176 -88v90h160v1493h-160v104h322v-1687h-322z" />
    <glyph glyph-name="asciicircum" unicode="^" horiz-adv-x="1116" 
d="M104 723l365 754h158l364 -754h-162l-288 596l-277 -596h-160z" />
    <glyph glyph-name="underscore" unicode="_" horiz-adv-x="1331" 
d="M37 870h1210v-153h-1210v153z" />
    <glyph glyph-name="grave" unicode="`" horiz-adv-x="819" 
d="M299 37l-68 -221h-67v204q-35 32 -35 78q0 37 24 66t60 26h41q68 0 68 -55q0 -31 -23 -98zM606 37l-67 -221h-68v204q-35 33 -35 78q0 37 24 66t60 26h41q68 0 68 -55q0 -31 -23 -98z" />
    <glyph glyph-name="a" unicode="a" horiz-adv-x="1032" 
d="M891 4v-4h-167l-116 554h-255l-116 -554h-167v4l327 1468h168zM574 719l-93 447l-94 -447h187z" />
    <glyph glyph-name="b" unicode="b" 
d="M857 808q18 -7 39.5 -30t39.5 -56.5t30 -75t12 -86.5v-236q0 -67 -25.5 -126t-69 -102.5t-102.5 -69t-126 -25.5h-497v1472h476q67 0 126 -25.5t103 -69.5t69.5 -103t25.5 -126v-106q0 -69 -27 -129.5t-74 -105.5zM336 885l298 -2q30 0 56.5 11.5t46.5 31t31.5 46.5
t11.5 57v135q0 30 -11.5 56.5t-31.5 46t-46.5 31t-56.5 11.5h-298v-424zM800 574q0 30 -11.5 56.5t-31 46t-46 31t-56.5 11.5l-319 2v-557h319q30 0 56.5 11.5t46 31t31 46.5t11.5 57v264z" />
    <glyph glyph-name="c" unicode="c" 
d="M979 473v-168q0 -67 -25.5 -126t-69 -103t-102.5 -69.5t-126 -25.5h-174q-67 0 -126 25.5t-103 69.5t-69.5 103t-25.5 126v862q0 67 25.5 126t69.5 102.5t103 69t126 25.5h174q67 0 126 -25.5t102.5 -69t69 -102.5t25.5 -126v-166h-178v180q0 30 -11.5 57t-31 46.5
t-46 31t-56.5 11.5h-174q-30 0 -56.5 -11.5t-46.5 -31t-31.5 -46.5t-11.5 -57v-891q0 -30 11.5 -56.5t31.5 -46t46.5 -31t56.5 -11.5h174q30 0 56.5 11.5t46 31t31 46t11.5 56.5v183h178z" />
    <glyph glyph-name="d" unicode="d" 
d="M655 1473q67 0 126 -25.5t103 -69.5t69.5 -103t25.5 -126v-825q0 -67 -25.5 -126t-69.5 -102.5t-103 -69t-126 -25.5h-497v1474zM801 1164q0 30 -11.5 56.5t-31.5 46t-46.5 31t-56.5 11.5h-319v-1145h319q30 0 56.5 11.5t46.5 31t31.5 46.5t11.5 57v854z" />
    <glyph glyph-name="e" unicode="e" 
d="M336 1308v-426h462v-165h-462v-552h643v-165h-822v1474h822v-166h-643z" />
    <glyph glyph-name="f" unicode="f" 
d="M336 1308v-426h462v-165h-462l-1 -717h-178v1474h822v-166h-643z" />
    <glyph glyph-name="g" unicode="g" 
d="M801 1002v180q0 30 -11.5 57t-31 46.5t-46.5 31t-57 11.5h-173q-30 0 -57 -11.5t-46.5 -31t-31 -46.5t-11.5 -57v-891q0 -30 11.5 -56.5t31 -46t46.5 -31t57 -11.5h173q30 0 57 11.5t46.5 31t31 46t11.5 56.5v247h-268v163h268h178v-163v-232q0 -67 -25.5 -126
t-69.5 -103t-103 -69.5t-126 -25.5h-173q-67 0 -126 25.5t-103 69.5t-69.5 103t-25.5 126v862q0 67 25.5 126t69.5 102.5t103 69t126 25.5h173q67 0 126 -25.5t103 -69t69.5 -102.5t25.5 -126v-166h-178z" />
    <glyph glyph-name="h" unicode="h" 
d="M977 1475v-1474h-178v717h-464v-717h-178v1474h178v-592h464v592h178z" />
    <glyph glyph-name="i" unicode="i" horiz-adv-x="494" 
d="M336 0h-178v1474h178v-1474z" />
    <glyph glyph-name="j" unicode="j" horiz-adv-x="1098" 
d="M938 1473v-1167q0 -67 -25.5 -126t-69.5 -103t-103 -69.5t-126 -25.5h-132q-67 0 -126 25.5t-103 69.5t-69.5 103t-25.5 126v168h178v-183q0 -30 11.5 -56.5t31 -46t46.5 -31t57 -11.5h132q30 0 56.5 11.5t46.5 31t31.5 46t11.5 56.5v1182h178z" />
    <glyph glyph-name="k" unicode="k" 
d="M568 862l411 -862h-204l-324 688l-115 -171v-517h-178v1472h178v-634l444 634h199z" />
    <glyph glyph-name="l" unicode="l" horiz-adv-x="1079" 
d="M979 165v-165h-821v1474h179v-1309h642z" />
    <glyph glyph-name="m" unicode="m" horiz-adv-x="1394" 
d="M1234 1472v-1472h-178v1241l-276 -1241h-168l-276 1241v-1241h-178v1472h294l244 -1166l243 1166h295z" />
    <glyph glyph-name="n" unicode="n" 
d="M979 0h-178l-465 1072v-1072h-178v1474h178v-1l465 -1073v1074h178v-1474z" />
    <glyph glyph-name="o" unicode="o" 
d="M655 1491q67 0 126 -25.5t103 -69t69.5 -102.5t25.5 -126v-862q0 -67 -25.5 -126t-69.5 -103t-103 -69.5t-126 -25.5h-173q-67 0 -126 25.5t-103 69.5t-69.5 103t-25.5 126v862q0 67 25.5 126t69.5 102.5t103 69t126 25.5h173zM801 1182q0 30 -11.5 57t-31 46.5t-46.5 31
t-57 11.5h-173q-30 0 -57 -11.5t-46.5 -31t-31 -46.5t-11.5 -57v-891q0 -30 11.5 -56.5t31 -46t46.5 -31t57 -11.5h173q30 0 57 11.5t46.5 31t31 46t11.5 56.5v891z" />
    <glyph glyph-name="p" unicode="p" horiz-adv-x="1106" 
d="M656 1472q67 0 126 -25.5t102.5 -69.5t69 -103t25.5 -126v-124q0 -67 -25.5 -126t-69 -103t-102.5 -69.5t-126 -25.5h-320v-700h-178v1472h178h320zM801 1163q0 30 -11.5 56.5t-31 46t-46 31t-56.5 11.5h-320v-444h320q30 0 56.5 11.5t46 31.5t31 46.5t11.5 56.5v153z
" />
    <glyph glyph-name="q" unicode="q" 
d="M938 -90l-118 118q-74 -45 -164 -45h-174q-67 0 -125.5 25.5t-102.5 69.5t-69.5 103t-25.5 126v862q0 67 25.5 126t69.5 102.5t102.5 69t125.5 25.5h174q67 0 126 -25.5t103 -69t69.5 -102.5t25.5 -126v-862q0 -50 -14 -95.5t-40 -83.5l115 -115zM656 147q30 0 56.5 11.5
t46 31t31 46t11.5 56.5v891q0 30 -11.5 57t-31 46.5t-46 31t-56.5 11.5h-174q-30 0 -56.5 -11.5t-46 -31t-31 -46.5t-11.5 -57v-891q0 -30 11.5 -56.5t31 -46t46 -31t56.5 -11.5h174z" />
    <glyph glyph-name="r" unicode="r" 
d="M979 983q0 -57 -18.5 -108t-51 -92t-77 -70.5t-96.5 -42.5l243 -670h-174l-240 660h-229v-660h-178v1472h178h319q67 0 126.5 -25.5t103 -69.5t69 -103t25.5 -126v-165zM801 1163q0 30 -11.5 56.5t-31 46t-46.5 31t-57 11.5h-319v-485h319q28 0 54.5 11.5t46.5 31
t32.5 46t12.5 57.5v194z" />
    <glyph glyph-name="s" unicode="s" 
d="M657 864q67 0 126 -25.5t102.5 -69.5t69 -102.5t25.5 -125.5v-236q0 -67 -25.5 -126t-69 -103t-102.5 -69.5t-126 -25.5h-174q-67 0 -125.5 25.5t-102.5 69.5t-69.5 103t-25.5 126v166h178v-181q0 -30 11.5 -56.5t31 -46t46 -31t56.5 -11.5h174q30 0 56.5 11.5t46 31
t31 46t11.5 56.5v265q0 30 -11.5 56.5t-31 46t-46 31t-56.5 11.5h-153q-67 0 -126 25.5t-103 69.5t-69.5 103t-25.5 126v143q0 67 25.5 126t69.5 102.5t103 69t126 25.5h132q67 0 126 -25.5t103 -69t69.5 -102.5t25.5 -126v-166h-178v180q0 30 -11.5 57t-31.5 46.5t-46.5 31
t-56.5 11.5h-132q-30 0 -57 -11.5t-46.5 -31t-31 -46.5t-11.5 -57v-171q0 -30 11.5 -56.5t31 -46.5t46.5 -31.5t57 -11.5h153v0z" />
    <glyph glyph-name="t" unicode="t" horiz-adv-x="1105" 
d="M960 1309h-311v-1308h-178v1308h-311v164h800v-164z" />
    <glyph glyph-name="u" unicode="u" 
d="M481 -18q-67 0 -126 25.5t-103 69.5t-69.5 103t-25.5 126v1167h178v-1182q0 -30 11.5 -56.5t31.5 -46t46.5 -31t56.5 -11.5h173q30 0 57 11.5t46.5 31t31 46t11.5 56.5v1182h178v-1167q0 -67 -25.5 -126t-69.5 -103t-103 -69.5t-126 -25.5h-173v0z" />
    <glyph glyph-name="v" unicode="v" horiz-adv-x="1068" 
d="M948 1472v-4l-327 -1468h-167l-327 1468v4h167l243 -1166l244 1166h167z" />
    <glyph glyph-name="w" unicode="w" horiz-adv-x="1555" 
d="M1435 1472v-4l-327 -1468h-167l-164 737l-164 -737h-168l-326 1468v4h167l243 -1166l166 797h163l166 -797l244 1166h167z" />
    <glyph glyph-name="x" unicode="x" 
d="M655 736l319 -736h-179l-229 529l-229 -529h-179l318 736l-318 736h179l229 -530l229 530h179z" />
    <glyph glyph-name="y" unicode="y" 
d="M979 1473l-319 -736v-736h-178v736l-319 736h179l229 -530l230 530h178z" />
    <glyph glyph-name="z" unicode="z" 
d="M981 1307l-614 -1145h615v-163h-800v163l614 1145h-614v164h800v-164h-1z" />
    <glyph glyph-name="braceleft" unicode="{" horiz-adv-x="705" 
d="M33 668v123q69 0 106 63q37 59 37 135v350q0 99 51 172q52 72 138 72h147v-90h-90q-41 0 -55 -39q-17 -41 -17 -129v-367q0 -67 -26 -124q-35 -72 -105 -103q82 -55 107 -110q24 -54 24 -152v-365q0 -53 23 -86q20 -32 82 -32h71v-107h-108q-144 0 -195 86
q-33 53 -33 172v287q0 104 -40 174q-44 70 -117 70z" />
    <glyph glyph-name="bar" unicode="|" horiz-adv-x="416" 
d="M104 4v1528h160v-1528h-160z" />
    <glyph glyph-name="braceright" unicode="}" horiz-adv-x="705" 
d="M483 758q-77 10 -118 69q-43 62 -43 158v395q0 88 -21 115q-22 23 -82 23h-57v106h102q219 0 219 -244v-336q0 -110 56 -184q45 -57 88 -57v-111q-60 -12 -99 -67q-45 -68 -45 -176v-349q0 -211 -250 -211h-71v107h71q54 0 72 27q17 22 17 94v379q0 206 161 262z" />
    <glyph glyph-name="asciitilde" unicode="~" horiz-adv-x="819" 
d="M463 1272l74 219l67 -2l-6 -205q31 -31 31 -76q0 -38 -22.5 -65t-63.5 -27h-41q-66 0 -66 55q0 30 27 101zM156 1280l73 219l68 -2l-6 -205q31 -31 31 -73q0 -38 -23.5 -67t-62.5 -28l-41 2q-66 3 -66 54q0 33 27 100z" />
    <glyph glyph-name="uni10D0" unicode="&#x10d0;" 
d="M932 987q18 -26 27.5 -53t14 -57t5.5 -64t1 -75v-432q0 -67 -25.5 -126t-69.5 -103t-103 -69.5t-126 -25.5h-173q-67 0 -126 25.5t-103 69.5t-69.5 103t-25.5 126v332h179v-346q0 -30 11.5 -56.5t31 -46.5t46 -31.5t56.5 -11.5h173q30 0 57 11.5t46.5 31.5t31 46.5
t11.5 56.5v446q0 34 -0.5 58.5t-2 41.5t-4.5 28t-9 19q-17 23 -66.5 59.5t-133.5 90.5l-3 2q-51 33 -90.5 58.5t-69 46.5t-51 40.5t-37.5 42.5q-18 26 -28 53t-14.5 57t-5 64t-0.5 74h178q0 -35 0.5 -59t2.5 -40.5t5 -27t9 -18.5q16 -24 64.5 -60t130.5 -89l4 -3
q52 -33 91.5 -58t70 -47t52 -42t37.5 -42z" />
    <glyph glyph-name="uni10D1" unicode="&#x10d1;" 
d="M678 882q63 -5 118 -31.5t95.5 -70t64 -100.5t23.5 -121v-254q0 -67 -25.5 -126t-69.5 -103t-102.5 -69.5t-125.5 -25.5h-174q-67 0 -126 25.5t-102.5 69.5t-69 103t-25.5 126v254q0 67 25.5 126t69 102.5t102.5 69t126 25.5h18v239h-43q-58 0 -108.5 22t-88 59.5
t-59.5 88t-22 108.5v73h175v-86q0 -21 8 -39.5t22.5 -32.5t33 -22t39.5 -8h196q11 0 18 -7.5t7 -17.5v-377zM801 573q0 30 -11.5 57t-31.5 46.5t-46 31t-56 11.5h-174q-30 0 -56.5 -11.5t-46 -31t-31 -46.5t-11.5 -57v-282q0 -30 11.5 -56.5t31 -46.5t46 -31.5t56.5 -11.5
h174q30 0 56 11.5t46 31.5t31.5 46.5t11.5 56.5v282z" />
    <glyph glyph-name="uni10D2" unicode="&#x10d2;" 
d="M806 847q39 -20 70.5 -50t54.5 -67t35.5 -80t12.5 -90v-254q0 -67 -25.5 -126t-69.5 -103t-103 -69.5t-126 -25.5h-173q-67 0 -126 25.5t-103 69.5t-69.5 103t-25.5 126v254q0 67 25.5 126t69.5 102.5t103 69t126 25.5h98q40 4 67 33t27 70v240q0 21 -8 40t-22 33
t-32.5 22t-39.5 8h-47q-21 0 -40 -8t-32.5 -22t-21.5 -33t-8 -40v-144h-177v132q0 57 22 108t60 88.5t88.5 59.5t108.5 22h47q58 0 108.5 -22t88 -59.5t59.5 -88.5t22 -108v-216q0 -42 -11.5 -80.5t-32.5 -70.5zM801 574q0 30 -11.5 57t-31 46.5t-46.5 31t-57 11.5h-173
q-30 0 -56.5 -11.5t-46 -31t-31 -46.5t-11.5 -57v-282q0 -30 11.5 -56.5t31 -46.5t46 -31.5t56.5 -11.5h173q30 0 57 11.5t46.5 31.5t31 46.5t11.5 56.5v282z" />
    <glyph glyph-name="uni10D3" unicode="&#x10d3;" horiz-adv-x="1608" 
d="M1124 1491q67 0 126 -25.5t103 -69.5t69.5 -103t25.5 -126v-387q0 -67 -25.5 -126t-69.5 -103t-103 -69.5t-126 -25.5h-87q-67 0 -126 25.5t-103 69.5t-69.5 103t-25.5 126l1 401q0 30 -11.5 57t-31.5 46.5t-46.5 31t-56.5 11.5h-86q-30 0 -56.5 -11.5t-46.5 -31
t-31.5 -46.5t-11.5 -57v-634q0 -49 19 -92t52 -75t76.5 -50.5t92.5 -18.5h397q58 0 108.5 -22t88.5 -59.5t60 -88.5t22 -108v-33h-179v45q0 21 -8 39.5t-22 33t-33 22.5t-40 8h-394q-87 0 -163 33t-132.5 89.5t-89.5 132.5t-33 163v601q0 67 25.5 126t69.5 103t103 69.5
t126 25.5h86q69 0 129.5 -27t104.5 -74q45 47 105.5 74t129.5 27h87zM1269 1181q0 30 -11.5 57t-31 46.5t-46 31t-56.5 11.5h-87q-30 0 -56.5 -11.5t-46 -31t-31 -46.5t-11.5 -57l-1 -415q0 -30 11.5 -57t31.5 -46.5t46.5 -31t56.5 -11.5h87q30 0 56.5 11.5t46 31t31 46.5
t11.5 57v415z" />
    <glyph glyph-name="uni10D4" unicode="&#x10d4;" 
d="M655 1492q67 0 126 -25.5t103 -69.5t69.5 -103t25.5 -126v-862q0 -67 -25.5 -126t-69.5 -103t-103 -69.5t-126 -25.5h-173q-67 0 -126 25.5t-103 69.5t-69.5 103t-25.5 126v168h178v-182q0 -30 11.5 -56.5t31 -46.5t46.5 -31.5t57 -11.5h173q30 0 56.5 11.5t46.5 31.5
t31.5 46.5t11.5 56.5v890q0 30 -11.5 57t-31.5 46.5t-46.5 31t-56.5 11.5h-153q-30 0 -56.5 -11.5t-46 -31t-31 -46.5t-11.5 -57v-180h-178v166q0 67 25.5 126t69 103t102.5 69.5t126 25.5h153v0z" />
    <glyph glyph-name="uni10D5" unicode="&#x10d5;" 
d="M857 808q18 -7 39.5 -30t39.5 -56.5t30 -75t12 -86.5v-254q0 -67 -25.5 -126t-69 -103t-102.5 -69.5t-126 -25.5h-174q-67 0 -125.5 25.5t-102.5 69.5t-69.5 103t-25.5 126v168h178v-182q0 -30 11.5 -56.5t31.5 -46.5t46 -31.5t56 -11.5h174q30 0 56.5 11.5t46 31.5
t31 46.5t11.5 56.5v282q0 30 -11.5 57t-31 46.5t-46 31t-56.5 11.5l-142 3v164l121 -4q30 0 57 11.5t46.5 31.5t31 46.5t11.5 56.5v153q0 30 -11.5 57t-31 46.5t-46.5 31t-57 11.5h-132q-30 0 -56.5 -11.5t-46 -31t-31 -46.5t-11.5 -57v-182h-179v168q0 67 25.5 126
t69.5 103t103 69.5t126 25.5h132q67 0 126 -25.5t103 -69.5t69.5 -103t25.5 -126v-125q0 -69 -26.5 -129.5t-74.5 -105.5z" />
    <glyph glyph-name="uni10D6" unicode="&#x10d6;" horiz-adv-x="1411" 
d="M947 883q67 0 126 -25.5t103 -69t69.5 -102.5t25.5 -126v-254q0 -67 -25.5 -126t-69.5 -103t-103 -69.5t-126 -25.5h-174q-67 0 -125.5 25.5t-102.5 69.5t-69.5 103t-25.5 126v254q0 88 43 160h-57q-57 0 -107.5 22t-88 59.5t-59.5 88t-22 107.5v218q0 57 22 107.5
t59.5 88t88 59.5t107.5 22h149q57 0 107.5 -22t88 -59.5t59.5 -88t22 -107.5v-218q0 -59 -25 -114h110zM337 985q0 -20 7.5 -38t21 -31.5t31.5 -21.5t39 -8h149q21 0 39 8t31.5 21.5t21 31.5t7.5 38v243q0 20 -7.5 38t-21 31.5t-31.5 21.5t-39 8h-149q-21 0 -39 -8
t-31.5 -21.5t-21 -31.5t-7.5 -38v-243zM1093 574q0 30 -11.5 57t-31.5 46.5t-46.5 31t-56.5 11.5h-174q-30 0 -56.5 -11.5t-46 -31t-31 -46.5t-11.5 -57v-282q0 -30 11.5 -56.5t31 -46.5t46 -31.5t56.5 -11.5h174q30 0 56.5 11.5t46.5 31.5t31.5 46.5t11.5 56.5v282z" />
    <glyph glyph-name="uni10D7" unicode="&#x10d7;" horiz-adv-x="1606" 
d="M1123 1492q67 0 126 -25.5t102.5 -69.5t69 -103t25.5 -126v-1167h-178v1181q0 30 -11.5 57t-31 46.5t-46 31t-56.5 11.5h-86q-30 0 -57 -11.5t-46.5 -31t-31 -46.5t-11.5 -57v-14v-862q0 -67 -25.5 -126t-69 -103t-102.5 -69.5t-126 -25.5h-87q-67 0 -126 25.5t-103 69.5
t-69.5 103t-25.5 126v862q0 67 25.5 126t69.5 103t103 69.5t126 25.5h87q69 0 129 -27t105 -74q45 47 105 74t130 27h86zM713 1168v14q0 30 -11.5 57t-31 46.5t-46 31t-56.5 11.5h-87q-30 0 -56.5 -11.5t-46 -31t-31 -46.5t-11.5 -57v-890q0 -30 11.5 -56.5t31 -46.5
t46 -31.5t56.5 -11.5h87q30 0 56.5 11.5t46 31.5t31 46.5t11.5 56.5v876z" />
    <glyph glyph-name="uni10D8" unicode="&#x10d8;" 
d="M656 1491q67 0 126 -25.5t102.5 -69.5t69 -103t25.5 -126v-1167h-178v1181q0 30 -11.5 57t-31 46.5t-46 31t-56.5 11.5h-174q-30 0 -56.5 -11.5t-46 -31t-31 -46.5t-11.5 -57v-1181h-178v1167q0 67 25.5 126t69 103t102.5 69.5t126 25.5h174v0z" />
    <glyph glyph-name="uni10D9" unicode="&#x10d9;" 
d="M858 808q18 -7 39.5 -30t39.5 -56.5t30 -75t12 -86.5v-254q0 -67 -25.5 -126t-69.5 -103t-102.5 -69.5t-125.5 -25.5h-174q-67 0 -126 25.5t-102.5 69.5t-69 103t-25.5 126v168h178v-182q0 -30 11.5 -56.5t31 -46.5t46 -31.5t56.5 -11.5h174q30 0 56.5 11.5t46 31.5
t31 46.5t11.5 56.5v282q0 30 -11.5 57t-31 46.5t-46 31t-56.5 11.5l-142 3v164l121 -4q30 0 56.5 11.5t46 31.5t31 46.5t11.5 56.5v153q0 30 -11.5 57t-31 46.5t-46 31t-56.5 11.5h-66v164h66q67 0 126 -25.5t103 -69.5t69.5 -103t25.5 -126v-125q0 -69 -27 -129.5
t-74 -105.5z" />
    <glyph glyph-name="uni10DA" unicode="&#x10da;" horiz-adv-x="2015" 
d="M1542 1491q67 0 126 -25.5t102.5 -69.5t69 -103t25.5 -126v-694h-178v708q0 30 -11.5 57t-31 46.5t-46 31t-56.5 11.5h-42q-30 0 -56.5 -11.5t-46 -31t-31 -46.5t-11.5 -57v-480h-179v480q0 30 -11.5 57t-31 46.5t-46 31t-56.5 11.5h-41q-30 0 -56.5 -11.5t-46 -31
t-31 -46.5t-11.5 -57v-480h-179v480q0 30 -11.5 57t-31 46.5t-46 31t-56.5 11.5h-40q-30 0 -56 -11.5t-46 -31t-31.5 -46.5t-11.5 -57v-634q0 -49 12 -92t36 -75t60 -50.5t85 -18.5h862q57 0 108 -22t88.5 -59.5t59.5 -88.5t22 -108v-33h-178v45q0 21 -8 39.5t-22 33
t-32.5 22.5t-39.5 8h-860q-87 0 -155.5 33t-116.5 89.5t-73.5 132.5t-25.5 163v601q0 67 25.5 126t69.5 103t102.5 69.5t125.5 25.5h40q69 0 129.5 -27t105.5 -74q45 47 105 74t129 27h41q69 0 129 -27t105 -74q45 47 105.5 74t129.5 27h42v0z" />
    <glyph glyph-name="uni10DB" unicode="&#x10db;" 
d="M656 1492q67 0 126 -25.5t103 -69.5t69.5 -103t25.5 -126v-608v-254q0 -67 -25.5 -126t-69.5 -103t-103 -69.5t-126 -25.5h-173q-67 0 -126 25.5t-103 69.5t-69.5 103t-25.5 126v254q0 67 25.5 126t69.5 102.5t103 69t126 25.5h173q20 0 41.5 -4.5t41 -12.5t36 -19.5
t26.5 -25.5v361q0 30 -11.5 57t-31 46.5t-46 31t-56.5 11.5h-153q-30 0 -56.5 -11.5t-46 -31t-31 -46.5t-11.5 -57v-100h-178v86q0 67 25.5 126t69 103t102.5 69.5t126 25.5h153zM801 574q0 30 -11.5 57t-31 46.5t-46 31t-56.5 11.5h-173q-30 0 -57 -11.5t-46.5 -31
t-31 -46.5t-11.5 -57v-282q0 -30 11.5 -56.5t31 -46.5t46.5 -31.5t57 -11.5h173q30 0 56.5 11.5t46 31.5t31 46.5t11.5 56.5v282z" />
    <glyph glyph-name="uni10DC" unicode="&#x10dc;" 
d="M656 883q67 0 126 -25.5t103 -69t69.5 -102.5t25.5 -126v-254q0 -67 -25.5 -126t-69.5 -103t-103 -69.5t-126 -25.5h-173q-67 0 -126 25.5t-103 69.5t-69.5 103t-25.5 126v254v608q0 67 25.5 126t69 103t102.5 69.5t127 25.5q49 0 77.5 -5t51 -11.5t46.5 -11.5t65 -5
t83 5t76 11q40 7 77 17v-164q-35 -10 -75 -17q-34 -6 -76 -11t-85 -5t-75 5t-59 11.5t-52 11.5t-54 5q-30 0 -56.5 -11.5t-46.5 -31t-31.5 -46.5t-11.5 -57v-357q28 31 67 44.5t79 13.5h173zM802 574q0 30 -11.5 57t-31.5 46.5t-46.5 31t-56.5 11.5h-173q-30 0 -57 -11.5
t-46.5 -31t-31 -46.5t-11.5 -57v-282q0 -30 11.5 -56.5t31 -46.5t46.5 -31.5t57 -11.5h173q30 0 56.5 11.5t46.5 31.5t31.5 46.5t11.5 56.5v282z" />
    <glyph glyph-name="uni10DD" unicode="&#x10dd;" horiz-adv-x="1607" 
d="M1124 1492q67 0 126 -25.5t102.5 -69.5t69 -103t25.5 -126v-1167h-178v1181q0 30 -11.5 57t-31 46.5t-46 31t-56.5 11.5h-87q-30 0 -56.5 -11.5t-46 -31t-31 -46.5t-11.5 -57v-673h-179v673q0 30 -11.5 57t-31 46.5t-46 31t-56.5 11.5h-87q-30 0 -56.5 -11.5t-46 -31
t-31 -46.5t-11.5 -57v-1181h-178v1167q0 67 25.5 126t69.5 103t102.5 69.5t125.5 25.5h87q69 0 129.5 -27t105.5 -74q44 47 104.5 74t129.5 27h87v0z" />
    <glyph glyph-name="uni10DE" unicode="&#x10de;" 
d="M857 808q19 -7 40.5 -30t39.5 -56.5t30 -75t12 -86.5v-254q0 -67 -25.5 -126t-69.5 -103t-103 -69.5t-126 -25.5h-173q-67 0 -126 25.5t-103 69.5t-69.5 103t-25.5 126v168h179v-182q0 -30 11.5 -56.5t31 -46.5t46 -31.5t56.5 -11.5h173q30 0 57 11.5t46.5 31.5t31 46.5
t11.5 56.5v282q0 30 -11.5 57t-31 46.5t-46.5 31t-57 11.5l-142 3v164l122 -4q30 0 56.5 11.5t46 31.5t31 46.5t11.5 56.5q0 48 -10.5 76t-33.5 46.5t-59 31.5t-86 30q-52 18 -87.5 31t-60 25.5t-41.5 27.5t-33 38q-23 32 -32 66.5t-9 71.5h181q0 -10 0.5 -23t5.5 -20
q8 -12 22 -21t39.5 -19.5t66.5 -24t103 -34.5q64 -22 105.5 -47.5t65 -60.5t32.5 -83t9 -115q-4 -64 -30 -119.5t-71 -97.5z" />
    <glyph glyph-name="uni10DF" unicode="&#x10df;" 
d="M978 1473v-1167q0 -67 -25.5 -126t-69.5 -103t-102.5 -69.5t-125.5 -25.5h-174q-67 0 -126 25.5t-103 69.5t-69.5 103t-25.5 126v168h178v-182q0 -30 11.5 -56.5t31.5 -46.5t46.5 -31.5t56.5 -11.5h174q30 0 56.5 11.5t46 31.5t31 46.5t11.5 56.5v1011l-229 -80
q28 -36 44 -80t16 -93q0 -58 -22 -108.5t-59.5 -88.5t-88.5 -60t-108 -22q-58 0 -108.5 22t-88.5 60t-60 88.5t-22 108.5h176v-12q0 -21 8 -40t22 -33t33 -22t40 -8t39.5 8t32.5 22t22 33t8 40v24q0 21 -8 40t-22 33t-32.5 22t-39.5 8v163l447 145h178z" />
    <glyph glyph-name="uni10E0" unicode="&#x10e0;" horiz-adv-x="1607" 
d="M1124 887q67 0 125.5 -25.5t102.5 -69t69.5 -102.5t25.5 -126v-564h-178v578q0 30 -11.5 56.5t-31 46t-46 31t-56.5 11.5h-86q-30 0 -57 -11.5t-46.5 -31t-31 -46t-11.5 -56.5v-307h-178v307q0 30 -11.5 56.5t-31.5 46t-46 31t-56 11.5h-87q-30 0 -57 -11.5t-46.5 -31
t-31 -46t-11.5 -56.5v-578h-178v907q0 87 33 163t89.5 132.5t132.5 89.5t163 33h395q21 0 39.5 8t32.5 22t22 32.5t8 39.5v45h178v-32q0 -58 -22 -108.5t-59.5 -88t-88 -59.5t-108.5 -22h-397q-49 0 -92.5 -18.5t-76.5 -51t-52 -75.5t-19 -92v-72q68 34 146 34h87
q69 0 129 -26.5t105 -73.5q44 47 104.5 73.5t130.5 26.5h86v0z" />
    <glyph glyph-name="uni10E1" unicode="&#x10e1;" 
d="M482 -18q-67 0 -125.5 25.5t-102.5 69.5t-69.5 103t-25.5 126v1167h178v-1181q0 -30 11.5 -56.5t31 -46.5t46 -31.5t56.5 -11.5h174q30 0 56.5 12t46 32.5t31 46.5t11.5 55q0 47 -13 89.5t-29 86t-29 90.5t-13 102q0 56 4.5 97.5t10.5 69.5q6 33 15 56h178
q-9 -35 -15 -72q-5 -32 -9.5 -71.5t-4.5 -79.5t13 -75t28.5 -75t28.5 -88.5t13 -115.5t-25.5 -126t-69 -103t-102.5 -69.5t-126 -25.5h-174v0z" />
    <glyph glyph-name="uni10E2" unicode="&#x10e2;" horiz-adv-x="1232" 
d="M748 1328q67 0 126 -25.5t103 -69.5t69.5 -103t25.5 -126v-698q0 -67 -25.5 -126t-69.5 -103t-103 -69.5t-126 -25.5h-266q-67 0 -126 25.5t-103 69.5t-69.5 103t-25.5 126v698q0 67 25.5 126t69.5 103t103 69.5t126 25.5h44v145h178v-145h44zM894 1019q0 30 -11.5 56.5
t-31 46t-46.5 31t-57 11.5h-44v-462h-178v462h-44q-30 0 -56.5 -11.5t-46 -31t-31 -46t-11.5 -56.5v-727q0 -30 11.5 -56.5t31 -46.5t46 -31.5t56.5 -11.5h266q30 0 57 11.5t46.5 31.5t31 46.5t11.5 56.5v727z" />
    <glyph glyph-name="uni10E3" unicode="&#x10e3;" 
d="M655 1492q67 0 126 -25.5t103 -69.5t69.5 -103t25.5 -126v-862q0 -67 -25.5 -126t-69.5 -103t-103 -69.5t-126 -25.5h-173q-67 0 -126 25.5t-103 69.5t-69.5 103t-25.5 126v168h178v-182q0 -30 11.5 -56.5t31 -46.5t46.5 -31.5t57 -11.5h173q30 0 57 11.5t46.5 31.5
t31 46.5t11.5 56.5v890q0 30 -11.5 57t-31 46.5t-46.5 31t-57 11.5h-42q-30 0 -56 -11.5t-46 -31t-31.5 -46.5t-11.5 -57v-299h-178v299q0 30 -11.5 57t-31 46.5t-46.5 31t-57 11.5h-125v164h125q70 0 130 -27t105 -74q45 47 105 74t129 27h42v0z" />
    <glyph glyph-name="uni10E4" unicode="&#x10e4;" horiz-adv-x="1586" 
d="M1305 806q18 -7 39.5 -30t39.5 -56.5t30 -75t12 -86.5v-254q0 -67 -25.5 -126t-69 -103t-102.5 -69.5t-126 -25.5h-351q-67 0 -125.5 25.5t-102.5 69.5t-69.5 103t-25.5 126v168h178v-182q0 -30 11.5 -56.5t31.5 -46.5t46 -31.5t56 -11.5h351q30 0 56.5 11.5t46 31.5
t31 46.5t11.5 56.5v282q0 30 -11.5 57t-31 46.5t-46 31t-56.5 11.5l-143 3v160h122q30 0 57 11.5t46.5 31.5t31 46.5t11.5 56.5v153q0 30 -11.5 57t-31 46.5t-46.5 31t-57 11.5h-86q-30 0 -56.5 -11.5t-46.5 -31t-31.5 -46.5t-11.5 -57l1 -157q0 -67 -25.5 -125.5
t-69.5 -102.5t-103 -69.5t-126 -25.5h-86q-67 0 -126 25.5t-103 69.5t-69.5 102.5t-25.5 125.5v143q0 67 25.5 126t69.5 103t103 69.5t126 25.5h86q69 0 129 -27t105 -74q45 47 105 74t130 27h86q67 0 126 -25.5t103 -69.5t69.5 -103t25.5 -126v-125q0 -70 -27 -130
t-74 -105zM527 864q30 0 56.5 11.5t46.5 31t31.5 46t11.5 56.5l-1 171q0 30 -11.5 57t-31 46.5t-46 31t-56.5 11.5h-86q-30 0 -57 -11.5t-46.5 -31t-31 -46.5t-11.5 -57v-171q0 -30 11.5 -56.5t31 -46t46.5 -31t57 -11.5h86z" />
    <glyph glyph-name="uni10E5" unicode="&#x10e5;" 
d="M979 1473v-1167q0 -67 -25.5 -126t-69.5 -103t-103 -69.5t-126 -25.5h-173q-67 0 -126 25.5t-103 69.5t-69.5 103t-25.5 126v168h178v-182q0 -30 11.5 -56.5t31 -46.5t46.5 -31.5t57 -11.5h173q30 0 56.5 11.5t46 31.5t31 46.5t11.5 56.5v652q0 30 -11.5 57t-31 46.5
t-46 31t-56.5 11.5h-104q-30 0 -56.5 -11.5t-46 -31t-31 -46.5t-11.5 -57v-61h-178v47q0 67 25.5 126t69 102.5t102.5 69t126 25.5h104q42 0 80.5 -19t64.5 -57v296h179z" />
    <glyph glyph-name="uni10E6" unicode="&#x10e6;" horiz-adv-x="1606" 
d="M973 311q57 0 107.5 -22t88 -59.5t59.5 -88.5t22 -108v-33h-178v45q0 21 -8 39.5t-22 33t-32.5 22.5t-39.5 8h-395q-87 0 -163 33t-132.5 89.5t-89.5 132.5t-33 163v601q0 67 25.5 126t69.5 103t103 69.5t126 25.5h87q69 0 129 -27t105 -74q45 47 105 74t130 27h86
q67 0 126 -25.5t102.5 -69.5t69 -103t25.5 -126v-694h-178v708q0 30 -11.5 57t-31 46.5t-46 31t-56.5 11.5h-86q-30 0 -57 -11.5t-46.5 -31t-31 -46.5t-11.5 -57v-480h-179l1 480q0 30 -11.5 57t-31 46.5t-46 31t-56.5 11.5h-87q-30 0 -56.5 -11.5t-46 -31t-31 -46.5
t-11.5 -57v-634q0 -49 19 -92t51.5 -75t76 -50.5t92.5 -18.5h398v0z" />
    <glyph glyph-name="uni10E7" unicode="&#x10e7;" 
d="M979 1473v-1167q0 -67 -25.5 -126t-69.5 -103t-102.5 -69.5t-125.5 -25.5h-174q-67 0 -126 25.5t-103 69.5t-69.5 103t-25.5 126v168h178v-182q0 -30 11.5 -56.5t31.5 -46.5t46.5 -31.5t56.5 -11.5h174q30 0 56.5 11.5t46 31.5t31 46.5t11.5 56.5v471q-32 -26 -76 -43.5
t-84 -17.5h-159q-67 0 -126 25.5t-103 69.5t-69.5 102.5t-25.5 125.5v448h178v-462q0 -30 11.5 -56.5t31.5 -46t46.5 -31t56.5 -11.5h174q30 0 56.5 11.5t46 31t31 46t11.5 56.5v462h178z" />
    <glyph glyph-name="uni10E8" unicode="&#x10e8;" 
d="M655 1492q67 0 126 -25.5t103 -69.5t69.5 -103t25.5 -126v-862q0 -67 -25.5 -126t-69.5 -103t-103 -69.5t-126 -25.5h-174q-67 0 -125.5 25.5t-102.5 69.5t-69.5 103t-25.5 126v254q0 67 25.5 126t69.5 102.5t102.5 69t125.5 25.5h174q39 0 79 -13.5t67 -44.5v357
q0 30 -11.5 57t-31.5 46.5t-46.5 31t-56.5 11.5t-56.5 -11.5t-46.5 -31t-31.5 -46.5t-11.5 -57v-100h-178v100q0 30 -11.5 57t-31 46.5t-46 31t-56.5 11.5h-114v164h114q70 0 130 -27t105 -74q44 47 104.5 74t129.5 27zM801 574q0 30 -11.5 56.5t-31.5 46t-46.5 31
t-56.5 11.5h-174q-30 0 -56 -11.5t-46 -31t-31.5 -46t-11.5 -56.5v-283q0 -30 11.5 -56t31.5 -46t46 -31.5t56 -11.5h174q30 0 56.5 11.5t46.5 31.5t31.5 46t11.5 56v283z" />
    <glyph glyph-name="uni10E9" unicode="&#x10e9;" 
d="M655 714q67 0 126 -25.5t103 -69t69.5 -102.5t25.5 -126v-391h-178v405q0 30 -11.5 57t-31.5 46.5t-46.5 31t-56.5 11.5h-174q-30 0 -56.5 -11.5t-46 -31t-31 -46.5t-11.5 -57v-405h-178v1167q0 67 25.5 126t69.5 103t102.5 69.5t125.5 25.5h133q67 0 126 -25.5
t103 -69.5t69.5 -103t25.5 -126t-25.5 -126t-69.5 -103t-103 -69.5t-126 -25.5h-90h-188v-189q16 13 35.5 24t40.5 19t42 12.5t41 4.5h160zM336 1007h188h90q30 0 56.5 11.5t46.5 31.5t31.5 46.5t11.5 56.5v28q0 30 -11.5 57t-31.5 46.5t-46.5 31t-56.5 11.5h-133
q-30 0 -56.5 -11.5t-46 -31t-31 -46.5t-11.5 -57v-174z" />
    <glyph glyph-name="uni10EA" unicode="&#x10ea;" horiz-adv-x="1232" 
d="M950 808q18 -7 39.5 -30t40 -56.5t30.5 -75t12 -86.5v-254q0 -67 -25.5 -126t-69.5 -103t-103 -69.5t-126 -25.5h-267q-67 0 -125.5 25.5t-102.5 69.5t-69.5 103t-25.5 126v1167h178v-1181q0 -30 11.5 -56.5t31.5 -46.5t46 -31.5t56 -11.5h267q30 0 56.5 11.5t46.5 31.5
t31.5 46.5t11.5 56.5v282q0 30 -11.5 57t-31.5 46.5t-46.5 31t-56.5 11.5l-142 3v164l122 -4q30 0 56.5 11.5t46 31.5t31 46.5t11.5 56.5q0 48 -8 76.5t-28 47.5t-53.5 33t-83.5 31q-52 18 -83.5 30t-51.5 24t-33 26.5t-29 37.5q-23 32 -32.5 66.5t-9.5 71.5h181
q0 -10 1 -23t6 -20q8 -12 18 -20.5t31 -18t57.5 -22.5t99.5 -34q64 -22 103 -48t59.5 -62t27 -84.5t6.5 -115.5q-4 -64 -30.5 -119.5t-70.5 -97.5z" />
    <glyph glyph-name="uni10EB" unicode="&#x10eb;" 
d="M158 559q0 67 25.5 126t69.5 102.5t102.5 69t125.5 25.5h174q39 0 78.5 -13.5t66.5 -44.5v648h178v-1167q0 -67 -25.5 -126t-69 -103t-102.5 -69.5t-126 -25.5h-174q-67 0 -125.5 25.5t-102.5 69.5t-69.5 103t-25.5 126v254zM336 291q0 -30 11.5 -56.5t31 -46.5t46 -31.5
t56.5 -11.5h174q30 0 56.5 11.5t46 31.5t31 46.5t11.5 56.5v282q0 30 -11.5 57t-31 46.5t-46 31t-56.5 11.5h-174q-30 0 -56.5 -11.5t-46 -31t-31 -46.5t-11.5 -57v-282z" />
    <glyph glyph-name="uni10EC" unicode="&#x10ec;" 
d="M158 1168q0 67 25.5 126t69.5 103t103 69.5t126 25.5q69 0 129 -27t105 -74q45 47 105 74t130 27h114v-164h-114q-30 0 -56.5 -11.5t-46.5 -31t-31.5 -46.5t-11.5 -57l1 -100h-178l-1 100q0 30 -11.5 57t-31 46.5t-46 31t-56.5 11.5t-56.5 -11.5t-46.5 -31t-31.5 -46.5
t-11.5 -57v-357q27 31 66.5 44.5t79.5 13.5h173q67 0 126 -25.5t103 -69t69.5 -102.5t25.5 -126v-254q0 -67 -25.5 -126t-69.5 -103t-103 -69.5t-126 -25.5h-173q-67 0 -126 25.5t-103 69.5t-69.5 103t-25.5 126v862zM336 291q0 -30 11.5 -56t31.5 -46t46.5 -31.5
t56.5 -11.5h173q30 0 56.5 11.5t46 31.5t31 46t11.5 56v283q0 30 -11.5 56.5t-31 46t-46 31t-56.5 11.5h-173q-30 0 -56.5 -11.5t-46.5 -31t-31.5 -46t-11.5 -56.5v-283z" />
    <glyph glyph-name="uni10ED" unicode="&#x10ed;" horiz-adv-x="1263" 
d="M1150 1136l-192 -119l192 -119v-151l-172 106v-547q0 -67 -25.5 -126t-69.5 -103t-103 -69.5t-126 -25.5h-173q-67 0 -126 25.5t-103 69.5t-69.5 103t-25.5 126v168h179v-183q0 -30 11.5 -56t31 -46t46 -31.5t56.5 -11.5h173q30 0 56.5 11.5t46.5 31.5t31.5 46t11.5 56
v591q-30 -34 -65.5 -65.5t-77 -56t-90.5 -39.5t-107 -15q-59 0 -105.5 28t-78.5 73t-49.5 100.5t-17.5 109.5t17.5 109.5t49.5 100.5t78.5 73t105.5 28q58 0 107 -15t90.5 -39.5t77 -56.5t65.5 -65v321h178h2v-292l170 106v-151zM536 878q21 0 43 9t43.5 23t40.5 31t34 32.5
t25 27.5t12 16q-3 6 -22.5 28.5t-48 47t-62.5 44t-65 19.5q-24 0 -51 -5t-49.5 -19.5t-37.5 -42t-15 -72.5t15 -72.5t37.5 -42t49.5 -19.5t51 -5z" />
    <glyph glyph-name="uni10EE" unicode="&#x10ee;" 
d="M655 883q67 0 126 -25.5t103 -69t69.5 -102.5t25.5 -126v-254q0 -67 -25.5 -126t-69.5 -103t-103 -69.5t-126 -25.5h-173q-67 0 -126 25.5t-103 69.5t-69.5 103t-25.5 126v254v913h178v-648q27 31 66.5 44.5t79.5 13.5h173zM800 574q0 30 -11.5 57t-31 46.5t-46 31
t-56.5 11.5h-173q-30 0 -57 -11.5t-46.5 -31t-31 -46.5t-11.5 -57v-282q0 -30 11.5 -56.5t31 -46.5t46.5 -31.5t57 -11.5h173q30 0 56.5 11.5t46 31.5t31 46.5t11.5 56.5v282z" />
    <glyph glyph-name="uni10EF" unicode="&#x10ef;" 
d="M741 819q71 -49 117 -95.5t73 -97.5t37.5 -110.5t10.5 -134.5v-73q0 -67 -25.5 -126t-69.5 -103t-102.5 -69.5t-125.5 -25.5h-174q-67 0 -126 25.5t-103 69.5t-69.5 103t-25.5 126v168h178v-183q0 -30 11.5 -56t31.5 -46t46.5 -31.5t56.5 -11.5h174q30 0 56.5 11.5
t46 31.5t31 46t11.5 56v88q0 57 -7 99.5t-24 77t-47.5 63t-76.5 57.5q-27 17 -60.5 40.5t-66 49t-60 51.5t-43.5 49t-25.5 47t-14.5 50.5t-6.5 55.5t-1.5 63h-210v164h210v227h178v-227h251v-164h-251q0 -51 3 -75.5t13 -37.5q16 -23 45.5 -49t59.5 -49q34 -27 74 -54z" />
    <glyph glyph-name="uni10F0" unicode="&#x10f0;" 
d="M857 506q34 -23 60 -56q23 -28 42 -70t19 -99t-27.5 -110.5t-73 -95.5t-103.5 -67.5t-119 -25.5h-174q-67 0 -126 25.5t-102.5 69.5t-69 103t-25.5 126v16h178v-31q0 -30 11.5 -56t31 -46t46 -31.5t56.5 -11.5h174q29 0 54.5 10.5t45 29t31.5 43t14 52.5q-2 28 -14 53
t-31.5 43.5t-45 29t-54.5 10.5l-142 3v164l114 -3q30 0 57 8.5t48 24t33.5 38t12.5 50.5t-12.5 48.5t-31.5 33.5t-42 19t-45 6l-134 3v163l121 -2q25 0 48 8t42 22.5t32 34.5t19 44q-6 29 -19.5 48t-36.5 32.5t-55 24.5t-74 26q-52 18 -87 31t-59.5 25.5t-41.5 27.5t-33 38
q-23 32 -32.5 66.5t-9.5 71.5h181q0 -11 0.5 -23.5t5.5 -19.5q8 -12 22 -21.5t39.5 -20t66.5 -24t103 -34.5q106 -35 159.5 -93t53.5 -155q0 -48 -16 -82.5t-35 -57.5q-22 -26 -50 -44q31 -11 57 -36q21 -21 39 -59t18 -101t-18 -101t-39 -59q-26 -25 -57 -36z" />
  </font>
</defs>
</svg>
