<?xml version="1.0" standalone="no"?>
<!DOCTYPE svg PUBLIC "-//W3C//DTD SVG 1.1//EN" "http://www.w3.org/Graphics/SVG/1.1/DTD/svg11.dtd" >
<svg xmlns="http://www.w3.org/2000/svg" xmlns:xlink="http://www.w3.org/1999/xlink" version="1.1">
<metadata>
Created by FontForge 20201107 at Fri Jun 13 07:23:43 2008
 By 
Typeface (c) The Monotype Corporation plc. Data (c) The Monotype Corporation plc/Type Solutions Inc. 1990-1992. All Rights Reserved
</metadata>
<defs>
<font id="BPGGlahoArial2008" horiz-adv-x="525" >
  <font-face 
    font-family="BPG Glaho Arial 2008"
    font-weight="400"
    font-stretch="normal"
    units-per-em="700"
    panose-1="2 11 6 4 2 2 2 2 2 4"
    ascent="560"
    descent="-140"
    x-height="363"
    cap-height="502"
    bbox="-464 -246 1400 705"
    underline-thickness="51"
    underline-position="-98"
    unicode-range="U+0020-FFFC"
  />
<missing-glyph 
d="M436 0h-350v436h350v-436zM98 427v-415h329v415h-329z" />
    <glyph glyph-name="afii52400" unicode="&#x622;" horiz-adv-x="146" arabic-form="isolated" 
d="M140 569l5 -3q-26 -26 -52 -26q-20 0 -31 6l-35 12q-5 0 -19 -6l-3 3l11 17q14 7 21 7l45 -14q14 -3 22 -3q6 0 36 7zM117 188q0 -25 -6.5 -43.5t-26.5 -53.5l-7 2l2 41q0 97 -29 319q4 7 15 30t18 35l14 -106q5 -37 20 -224z" />
    <glyph glyph-name="afii57411" unicode="&#x623;" horiz-adv-x="146" arabic-form="isolated" 
d="M125 560q0 -13 -33 -26l-63 -22q0 17 34 28q-22 12 -22 26q0 11 20 30.5t32 19.5q18 0 18 -16q0 -7 -8 -21q-9 9 -24 9q-7 0 -14.5 -3t-7.5 -6q0 -6 16 -15.5t27 -9.5q12 0 25 6zM117 188q0 -25 -6.5 -43.5t-26.5 -53.5l-7 2l2 41q0 97 -29 319q4 7 15 30t18 35l14 -106
q5 -37 20 -224z" />
    <glyph glyph-name="afii57412" unicode="&#x624;" horiz-adv-x="302" arabic-form="isolated" 
d="M302 160v-40q0 -60 -46 -117t-102 -57q-40 0 -138 34l6 12q63 -14 78 -14q50 0 87 23.5t93 97.5q-96 0 -96 70q0 38 20 68.5t46 30.5q52 0 52 -108zM281 159q-14 56 -41 56q-8 0 -15.5 -7.5t-7.5 -16.5q0 -32 64 -32zM219 334q0 -16 -30 -26l-64 -22q0 17 35 28l-18 9
q-7 12 -7 14q0 11 21 32t33 21q16 0 16 -18q0 -11 -7 -21q-11 11 -23 11q-7 0 -14.5 -4t-7.5 -8q0 -5 16 -13.5t27 -8.5q12 0 23 6z" />
    <glyph glyph-name="afii57413" unicode="&#x625;" horiz-adv-x="146" arabic-form="isolated" 
d="M111 -19q0 -13 -33 -24l-63 -22q0 13 34 28l-15 9q-7 7 -7 14q0 11 20 31t32 20q18 0 18 -16q0 -7 -8 -21q-9 9 -24 9q-22 0 -22 -10q0 -5 16 -13.5t27 -8.5q12 0 25 4zM117 188q0 -25 -6.5 -43.5t-26.5 -53.5l-7 2l2 41q0 97 -29 319q4 7 15 30t18 35l14 -106
q5 -37 20 -224z" />
    <glyph glyph-name="afii57414" unicode="&#x626;" horiz-adv-x="447" arabic-form="isolated" 
d="M425 273q0 -9 -2.5 -22.5t-2.5 -14.5q-24 31 -63 31q-26 0 -59 -31t-33 -53q0 -14 31 -14h66q44 0 44 -28q0 -82 -70 -126.5t-190 -44.5q-130 0 -130 100q0 38 10 67.5t49 109.5l15 -4q-46 -82 -46 -131q0 -84 112 -84q53 0 134.5 30.5t81.5 47.5q0 12 -17 12h-81
q-14 0 -25.5 10.5t-11.5 26.5q0 20 20 62q23 50 55 78t64 28q22 0 35.5 -14t13.5 -36zM124 334q0 -15 -33 -26l-63 -22q0 16 34 28l-15 9q-7 7 -7 14q0 11 20 32t32 21q18 0 18 -18q0 -5 -7 -21q-11 11 -25 11q-7 0 -14.5 -4t-7.5 -8q0 -5 16 -13.5t27 -8.5q12 0 25 6z" />
    <glyph glyph-name="afii57415" unicode="&#x627;" horiz-adv-x="146" arabic-form="isolated" 
d="M117 188q0 -25 -6.5 -43.5t-26.5 -53.5l-7 2l2 41q0 97 -29 319q4 7 15 30t18 35l14 -106q5 -37 20 -224z" />
    <glyph glyph-name="afii57416" unicode="&#x628;" horiz-adv-x="499" arabic-form="isolated" 
d="M499 194v-94h-325q-73 0 -113.5 28.5t-40.5 83.5q0 42 14 66l24 45l11 -7l-14 -30q-11 -24 -11 -43q0 -39 37.5 -61t101.5 -22h288v9q0 73 -39 104l25 55l19 -22q23 -41 23 -112zM246 47l57 -31l-25 -49l-56 28z" />
    <glyph glyph-name="afii57417" unicode="&#x629;" horiz-adv-x="197" arabic-form="isolated" 
d="M104 448l56 -28l-27 -50l-55 29zM26 418l56 -28l-26 -52l-56 31zM190 202q0 -60 -25 -85.5t-80 -25.5q-59 0 -59 42q0 27 11 56l21 54l-3 1l21 57q74 -38 94 -55.5t20 -43.5zM161 175q0 17 -72 51q-21 -22 -24.5 -28t-3.5 -17q0 -17 9.5 -26.5t26.5 -9.5q18 0 41 10.5
t23 19.5z" />
    <glyph glyph-name="afii57418" unicode="&#x62a;" horiz-adv-x="499" arabic-form="isolated" 
d="M282 440l56 -29l-25 -49l-56 29zM204 408l56 -29l-27 -49l-53 28zM499 194v-94h-325q-73 0 -113.5 28.5t-40.5 83.5q0 42 14 66l24 45l11 -7l-14 -30q-11 -24 -11 -43q0 -39 37.5 -61t101.5 -22h288v9q0 73 -39 104l25 55l19 -22q23 -41 23 -112z" />
    <glyph glyph-name="afii57419" unicode="&#x62b;" horiz-adv-x="499" arabic-form="isolated" 
d="M216 502l56 -31l-27 -50l-55 29zM282 440l56 -29l-25 -49l-56 29zM204 408l56 -29l-27 -49l-53 28zM499 194v-94h-325q-73 0 -113.5 28.5t-40.5 83.5q0 42 14 66l24 45l11 -7l-14 -30q-11 -24 -11 -43q0 -39 37.5 -61t101.5 -22h288v9q0 73 -39 104l25 55l19 -22
q23 -41 23 -112z" />
    <glyph glyph-name="afii57420" unicode="&#x62c;" horiz-adv-x="393" arabic-form="isolated" 
d="M209 119l56 -29l-29 -53l-54 32zM166 238q-6 0 -21 0.5t-19 0.5q-40 0 -98 -13q17 48 39 62t73 14q2 0 58 -7t90 -7q7 0 29.5 2.5t27.5 2.5l-11 -57q-149 -26 -220.5 -71.5t-71.5 -113.5q0 -69 66.5 -105t186.5 -36h63l4 -3l-77 -55h-21q-128 0 -186.5 43t-58.5 133
q0 65 25.5 106.5t121.5 103.5z" />
    <glyph glyph-name="afii57421" unicode="&#x62d;" horiz-adv-x="393" arabic-form="isolated" 
d="M166 238q-6 0 -21 0.5t-19 0.5q-40 0 -98 -13q17 48 39 62t73 14q2 0 58 -7t90 -7q7 0 29.5 2.5t27.5 2.5l-11 -57q-149 -26 -220.5 -71.5t-71.5 -113.5q0 -69 66.5 -105t186.5 -36h63l4 -3l-77 -55h-21q-128 0 -186.5 43t-58.5 133q0 65 25.5 106.5t121.5 103.5z" />
    <glyph glyph-name="afii57422" unicode="&#x62e;" horiz-adv-x="393" arabic-form="isolated" 
d="M175 448l56 -29l-27 -50l-55 29zM166 238q-6 0 -21 0.5t-19 0.5q-40 0 -98 -13q17 48 39 62t73 14q2 0 58 -7t90 -7q7 0 29.5 2.5t27.5 2.5l-11 -57q-149 -26 -220.5 -71.5t-71.5 -113.5q0 -69 66.5 -105t186.5 -36h63l4 -3l-77 -55h-21q-128 0 -186.5 43t-58.5 133
q0 65 25.5 106.5t121.5 103.5z" />
    <glyph glyph-name="afii57423" unicode="&#x62f;" horiz-adv-x="237" arabic-form="isolated" 
d="M237 160v-60h-154q-20 0 -35 11.5t-15 27.5q0 26 7 45h7q5 -24 36 -24h133q0 132 -89 161l6 65q54 -27 79 -81.5t25 -144.5z" />
    <glyph glyph-name="afii57424" unicode="&#x630;" horiz-adv-x="237" arabic-form="isolated" 
d="M89 532l57 -29l-27 -50l-55 29zM237 160v-60h-154q-20 0 -35 11.5t-15 27.5q0 26 7 45h7q5 -24 36 -24h133q0 132 -89 161l6 65q54 -27 79 -81.5t25 -144.5z" />
    <glyph glyph-name="afii57425" unicode="&#x631;" horiz-adv-x="342" arabic-form="isolated" 
d="M342 183v-83q0 -52 -61 -107.5t-106 -55.5q-30 0 -50 6l-50 16q-9 3 -25.5 10t-23.5 9l4 14q72 -14 91 -14q63 0 129.5 55.5t66.5 107.5q0 45 -51 106l20 54q31 -31 43.5 -57t12.5 -61z" />
    <glyph glyph-name="afii57426" unicode="&#x632;" horiz-adv-x="342" arabic-form="isolated" 
d="M236 448l56 -29l-27 -50l-55 29zM342 183v-83q0 -52 -61 -107.5t-106 -55.5q-30 0 -50 6l-50 16q-9 3 -25.5 10t-23.5 9l4 14q72 -14 91 -14q63 0 129.5 55.5t66.5 107.5q0 45 -51 106l20 54q31 -31 43.5 -57t12.5 -61z" />
    <glyph glyph-name="afii57427" unicode="&#x633;" horiz-adv-x="575" arabic-form="isolated" 
d="M575 182v-82h-28q-36 0 -66 24q-19 -15 -32.5 -19.5t-41.5 -4.5h-42q0 -70 -55.5 -110t-143.5 -40q-145 0 -145 105q0 62 27 119l27 57l11 -7q-38 -80 -38 -128q0 -42 31 -65t87 -23q76 0 127.5 29t51.5 74q0 61 -39 112l29 70q18 -31 24 -58t6 -75h42q31 0 45.5 8
t14.5 28q0 10 -6 42l14 21l6 -34q5 -34 18.5 -49t40.5 -15q15 0 15 16q0 34 -30 67l22 36q19 -29 23.5 -46t4.5 -52z" />
    <glyph glyph-name="afii57428" unicode="&#x634;" horiz-adv-x="575" arabic-form="isolated" 
d="M425 502l56 -31l-27 -50l-55 29zM491 440l56 -29l-27 -49l-53 29zM413 408l56 -29l-26 -49l-56 28zM575 182v-82h-28q-36 0 -66 24q-19 -15 -32.5 -19.5t-41.5 -4.5h-42q0 -70 -55.5 -110t-143.5 -40q-145 0 -145 105q0 62 27 119l27 57l11 -7q-38 -80 -38 -128
q0 -42 31 -65t87 -23q76 0 127.5 29t51.5 74q0 61 -39 112l29 70q18 -31 24 -58t6 -75h42q31 0 45.5 8t14.5 28q0 10 -6 42l14 21l6 -34q5 -34 18.5 -49t40.5 -15q15 0 15 16q0 34 -30 67l22 36q19 -29 23.5 -46t4.5 -52z" />
    <glyph glyph-name="afii57429" unicode="&#x635;" horiz-adv-x="769" arabic-form="isolated" 
d="M769 187v-87h-406q-13 -80 -59.5 -115t-137.5 -35q-145 0 -145 105q0 62 27 119l27 57l11 -7q-38 -80 -38 -128q0 -42 31 -65t87 -23q76 0 127.5 29t51.5 74q0 61 -39 112l29 70q18 -31 24 -58t6 -75h7q70 0 139 49q73 52 98 64t69 12q43 0 67 -25t24 -73zM714 187
q0 16 -21 25.5t-50 9.5q-44 0 -110 -35l-49 -27h158q72 0 72 27z" />
    <glyph glyph-name="afii57430" unicode="&#x636;" horiz-adv-x="769" arabic-form="isolated" 
d="M484 413l56 -29l-24 -49l-56 29zM769 187v-87h-406q-13 -80 -59.5 -115t-137.5 -35q-145 0 -145 105q0 62 27 119l27 57l11 -7q-38 -80 -38 -128q0 -42 31 -65t87 -23q76 0 127.5 29t51.5 74q0 61 -39 112l29 70q18 -31 24 -58t6 -75h7q70 0 139 49q73 52 98 64t69 12
q43 0 67 -25t24 -73zM714 187q0 16 -21 25.5t-50 9.5q-44 0 -110 -35l-49 -27h158q72 0 72 27z" />
    <glyph glyph-name="afii57431" unicode="&#x637;" horiz-adv-x="407" arabic-form="isolated" 
d="M407 187v-87h-430v60h51q111 0 111 98q0 60 -22 155l-14 55l-24 10q9 49 21 77q8 -28 67 -35q-7 -52 -13 -67l-16 4q28 -93 28 -154q0 -9 -2.5 -27.5t-3.5 -24.5l-6 -34q79 47 104.5 57.5t58.5 10.5q43 0 66.5 -25.5t23.5 -72.5zM352 187q0 35 -67 35q-63 0 -161 -62h149
q79 0 79 27z" />
    <glyph glyph-name="afii57432" unicode="&#x638;" horiz-adv-x="407" arabic-form="isolated" 
d="M258 448l56 -29l-26 -50l-56 29zM407 187v-87h-430v60h51q111 0 111 98q0 60 -22 155l-14 55l-24 10q9 49 21 77q8 -28 67 -35q-7 -52 -13 -67l-16 4q28 -93 28 -154q0 -9 -2.5 -27.5t-3.5 -24.5l-6 -34q79 47 104.5 57.5t58.5 10.5q43 0 66.5 -25.5t23.5 -72.5zM352 187
q0 35 -67 35q-63 0 -161 -62h149q79 0 79 27z" />
    <glyph glyph-name="afii57433" unicode="&#x639;" horiz-adv-x="380" arabic-form="isolated" 
d="M362 -89v-2l-88 -57q-136 0 -198 34t-62 119q0 71 43 128l34 35q-42 22 -57 42t-15 54q0 40 34.5 74.5t79.5 34.5q35 0 89 -39q-76 0 -127 -17.5t-51 -37.5q0 -19 35 -37.5t81 -24.5q60 33 142 55l-15 -54q-133 -52 -188.5 -93t-55.5 -97q0 -60 59 -89t194 -29
q10 0 32 0.5t34 0.5z" />
    <glyph glyph-name="afii57434" unicode="&#x63a;" horiz-adv-x="380" arabic-form="isolated" 
d="M117 516l53 -28l-28 -52l-52 31zM362 -89v-2l-88 -57q-136 0 -198 34t-62 119q0 71 43 128l34 35q-42 22 -57 42t-15 54q0 40 34.5 74.5t79.5 34.5q35 0 89 -39q-76 0 -127 -17.5t-51 -37.5q0 -19 35 -37.5t81 -24.5q60 33 142 55l-15 -54q-133 -52 -188.5 -93t-55.5 -97
q0 -60 59 -89t194 -29q10 0 32 0.5t34 0.5z" />
    <glyph glyph-name="afii57441" unicode="&#x641;" horiz-adv-x="552" arabic-form="isolated" 
d="M428 477l56 -29l-28 -51l-56 30zM552 198v-98h-314q-117 0 -170.5 27t-53.5 90q0 30 16 71l19 41l14 -8q-23 -48 -23 -74q0 -45 48.5 -66t156.5 -21h252q-82 22 -82 65q0 36 24.5 73t50.5 37q62 0 62 -137zM517 204q0 64 -32 64q-22 0 -22 -25q0 -15 10 -23t44 -16z" />
    <glyph glyph-name="afii57442" unicode="&#x642;" horiz-adv-x="407" arabic-form="isolated" 
d="M310 478l56 -29l-25 -49l-55 29zM232 447l56 -28l-27 -50l-53 29zM407 148v-65q0 -64 -57.5 -99t-161.5 -35q-165 0 -165 114q0 80 48 167l14 -6q-35 -76 -35 -131q0 -85 140 -85q80 0 135 28t55 71q0 31 -3 41q-30 -14 -54 -14q-33 0 -52 17t-19 46q0 42 22 77.5
t49 35.5q37 0 60.5 -47t23.5 -115zM352 210q-10 24 -17.5 32t-18.5 8q-31 0 -31 -27q0 -11 9.5 -18t21.5 -7q10 0 36 12z" />
    <glyph glyph-name="afii57443" unicode="&#x643;" horiz-adv-x="421" arabic-form="isolated" 
d="M295 309q0 -37 -24.5 -57.5t-69.5 -20.5q-42 0 -91 19l4 7q13 0 20 -3l34 -1h9q35 0 61.5 12t26.5 27q0 7 -6.5 12t-13.5 5q-12 0 -14 -1l-23 -1q-21 0 -21 20q0 29 30.5 69.5t61.5 50.5l-6 -46q-57 -14 -57 -43q0 -10 17 -10q10 0 12 1l19 1q17 1 24 -9t7 -32zM421 167
v-67h-253q-84 0 -118.5 20.5t-34.5 69.5q0 26 15 69l20 40l12 -7q-19 -44 -19 -69q0 -63 125 -63h218l-43 289l-16 8q0 53 15 84l6 -2q0 -19 24 -29l36 -14q0 -20 -11 -67l-17 6z" />
    <glyph glyph-name="afii57444" unicode="&#x644;" horiz-adv-x="355" arabic-form="isolated" 
d="M355 142q0 -71 -46 -104t-142 -33q-69 0 -106.5 27t-37.5 78q0 38 13 76.5t48 99.5l9 -7q-15 -29 -21 -41l-16 -43q-6 -18 -6 -47q0 -84 116 -84q59 0 110 20.5t51 50.5q0 42 -11 112l-31 203l-17 10q0 47 19 81h6q1 -21 16 -28l40 -17q0 -36 -8 -67l-20 6v-2
q-1 -8 9 -67q25 -159 25 -224z" />
    <glyph glyph-name="afii57445" unicode="&#x645;" horiz-adv-x="237" arabic-form="isolated" 
d="M237 160v-60h-41q-64 0 -108.5 -14t-44.5 -35q0 -22 16 -74.5t16 -73.5q0 -20 -10 -51l-42 139q-10 41 -10 52q0 60 35 83.5t128 33.5q-24 26 -34.5 32t-27.5 6q-22 0 -39 -24l-17 9q28 67 74 67q20 0 37.5 -12.5t40.5 -40.5z" />
    <glyph glyph-name="afii57446" unicode="&#x646;" horiz-adv-x="369" arabic-form="isolated" 
d="M187 391l53 -28l-24 -49l-54 29zM369 160v-60q0 -79 -48 -114.5t-153 -35.5q-145 0 -145 105q0 41 11.5 77t41.5 99l14 -7q-40 -79 -40 -128q0 -42 30.5 -65t86.5 -23q75 0 125.5 29t50.5 74q0 69 -35 112l28 70q33 -56 33 -133z" />
    <glyph glyph-name="afii57447" unicode="&#x647;" horiz-adv-x="197" arabic-form="isolated" 
d="M183 202q0 -60 -25 -85.5t-80 -25.5q-27 0 -43 11.5t-16 30.5q0 27 11 56l24 54l-6 1l21 57q74 -38 94 -55.5t20 -43.5zM154 175q0 17 -72 51q-21 -22 -24.5 -28t-3.5 -17q0 -17 10 -26.5t26 -9.5q18 0 41 10.5t23 19.5z" />
    <glyph glyph-name="afii57448" unicode="&#x648;" horiz-adv-x="302" arabic-form="isolated" 
d="M302 160v-40q0 -60 -46 -117t-102 -57q-40 0 -138 34l6 12q63 -14 78 -14q50 0 87 23.5t93 97.5q-96 0 -96 70q0 38 20 68.5t46 30.5q52 0 52 -108zM281 159q-14 56 -41 56q-8 0 -15.5 -7.5t-7.5 -16.5q0 -32 64 -32z" />
    <glyph glyph-name="afii57449" unicode="&#x649;" horiz-adv-x="447" arabic-form="isolated" 
d="M425 273q0 -9 -2.5 -22.5t-2.5 -14.5q-24 31 -63 31q-26 0 -59 -31t-33 -53q0 -14 31 -14h66q44 0 44 -28q0 -82 -70 -126.5t-190 -44.5q-130 0 -130 100q0 38 10 67.5t49 109.5l15 -4q-46 -82 -46 -131q0 -84 112 -84q53 0 134.5 30.5t81.5 47.5q0 12 -17 12h-81
q-14 0 -25.5 10.5t-11.5 26.5q0 20 20 62q23 50 55 78t64 28q22 0 35.5 -14t13.5 -36z" />
    <glyph glyph-name="afii57450" unicode="&#x64a;" horiz-adv-x="447" arabic-form="isolated" 
d="M425 273q0 -9 -2.5 -22.5t-2.5 -14.5q-24 31 -63 31q-26 0 -59 -31t-33 -53q0 -14 31 -14h66q44 0 44 -28q0 -82 -70 -126.5t-190 -44.5q-130 0 -130 100q0 38 10 67.5t49 109.5l15 -4q-46 -82 -46 -131q0 -84 112 -84q53 0 134.5 30.5t81.5 47.5q0 12 -17 12h-81
q-14 0 -25.5 10.5t-11.5 26.5q0 20 20 62q23 50 55 78t64 28q22 0 35.5 -14t13.5 -36zM239 -36l56 -29l-27 -49l-56 29zM161 -68l56 -29l-27 -49l-55 29z" />
    <glyph glyph-name="uni0671" unicode="&#x671;" horiz-adv-x="146" arabic-form="isolated" 
d="M117 188q0 -25 -6.5 -43.5t-26.5 -53.5l-7 2l2 41q0 97 -29 319q4 7 15 30t18 35l14 -106q5 -37 20 -224zM147 589q0 -20 -18 -34.5t-40 -14.5h-59q-9 0 -9 -15v-7l1 -2v-3l-1 -1q-15 20 -15 35q0 22 24 22h10q36 55 79 55q28 0 28 -35zM117 589q0 14 -12 14
q-20 0 -48 -34h28q32 0 32 20z" />
    <glyph glyph-name="uni0677" unicode="&#x677;" horiz-adv-x="302" arabic-form="isolated" 
d="M302 160v-40q0 -60 -46 -117t-102 -57q-40 0 -138 34l6 12q63 -14 78 -14q50 0 87 23.5t93 97.5q-96 0 -96 70q0 38 20 68.5t46 30.5q52 0 52 -108zM281 159q-14 56 -41 56q-8 0 -15.5 -7.5t-7.5 -16.5q0 -32 64 -32zM357 362q0 -13 -33 -26l-63 -22q0 17 34 28
q-22 12 -22 26q0 11 20 30.5t32 19.5q18 0 18 -16q0 -7 -8 -21q-9 9 -24 9q-7 0 -14.5 -3t-7.5 -6q0 -6 16 -15.5t27 -9.5q12 0 25 6zM216 340q0 -4 -1 -13t-1 -12l-31 18l-22 -26q-21 -26 -43 -26h-23q1 1 16.5 10.5t25.5 17.5l32 32q-23 12 -23 34t13 39.5t29 17.5
q9 0 16 -10t7 -24q0 -10 -10 -40l10 -8q5 -2 5 -10zM187 369l2 9q0 9 -6 17t-11 8q-7 0 -7 -7q0 -9 8 -17z" />
    <glyph glyph-name="uni0679" unicode="&#x679;" horiz-adv-x="499" arabic-form="isolated" 
d="M499 194v-94h-325q-73 0 -113.5 28.5t-40.5 83.5q0 42 14 66l24 45l11 -7l-14 -30q-11 -24 -11 -43q0 -39 37.5 -61t101.5 -22h288v9q0 73 -39 104l25 55l19 -22q23 -41 23 -112zM359 405v-42h-205v29h24q53 0 53 44q0 37 -12 76l-6 27l-10 5q1 19 9 36q2 -9 14 -13
l16 -5q0 -8 -3 -31l-8 2q11 -40 11 -72q0 -9 -2 -27l-2 -15q50 31 78 31q43 0 43 -45zM332 404q0 17 -31 17q-18 0 -55 -17l-22 -12h71q37 0 37 12z" />
    <glyph glyph-name="uni067A" unicode="&#x67a;" horiz-adv-x="499" arabic-form="isolated" 
d="M499 194v-94h-325q-73 0 -113.5 28.5t-40.5 83.5q0 42 14 66l24 45l11 -7l-14 -30q-11 -24 -11 -43q0 -39 37.5 -61t101.5 -22h288v9q0 73 -39 104l25 55l19 -22q23 -41 23 -112zM233 526l55 -28l-26 -50l-56 29zM248 442l55 -29l-26 -52l-53 31z" />
    <glyph glyph-name="uni067B" unicode="&#x67b;" horiz-adv-x="499" arabic-form="isolated" 
d="M499 194v-94h-325q-73 0 -113.5 28.5t-40.5 83.5q0 42 14 66l24 45l11 -7l-14 -30q-11 -24 -11 -43q0 -39 37.5 -61t101.5 -22h288v9q0 73 -39 104l25 55l19 -22q23 -41 23 -112zM254 48l55 -28l-26 -50l-56 29zM269 -36l55 -29l-26 -52l-53 31z" />
    <glyph glyph-name="afii57506" unicode="&#x67e;" horiz-adv-x="499" arabic-form="isolated" 
d="M499 194v-94h-325q-73 0 -113.5 28.5t-40.5 83.5q0 42 14 66l24 45l11 -7l-14 -30q-11 -24 -11 -43q0 -39 37.5 -61t101.5 -22h288v9q0 73 -39 104l25 55l19 -22q23 -41 23 -112zM293 48l56 -28l-27 -50l-56 29zM281 -43l55 -29l-26 -52l-56 31zM215 16l56 -29l-26 -49
l-57 29z" />
    <glyph glyph-name="uni067F" unicode="&#x67f;" horiz-adv-x="499" arabic-form="isolated" 
d="M499 194v-94h-325q-73 0 -113.5 28.5t-40.5 83.5q0 42 14 66l24 45l11 -7l-14 -30q-11 -24 -11 -43q0 -39 37.5 -61t101.5 -22h288v9q0 73 -39 104l25 55l19 -22q23 -41 23 -112zM270 526l56 -29l-25 -49l-55 29zM287 441l57 -31l-27 -49l-56 31zM210 409l56 -29l-27 -49
l-55 28zM248 464l-27 -49l-53 30l23 49z" />
    <glyph glyph-name="uni0680" unicode="&#x680;" horiz-adv-x="499" arabic-form="isolated" 
d="M499 194v-94h-325q-73 0 -113.5 28.5t-40.5 83.5q0 42 14 66l24 45l11 -7l-14 -30q-11 -24 -11 -43q0 -39 37.5 -61t101.5 -22h288v9q0 73 -39 104l25 55l19 -22q23 -41 23 -112zM284 48l56 -29l-25 -49l-55 29zM301 -37l57 -31l-27 -49l-56 31zM224 -69l56 -29l-27 -49
l-55 28zM262 -14l-27 -49l-53 30l23 49z" />
    <glyph glyph-name="uni0683" unicode="&#x683;" horiz-adv-x="393" arabic-form="isolated" 
d="M166 238q-6 0 -21 0.5t-19 0.5q-40 0 -98 -13q17 48 39 62t73 14q2 0 58 -7t90 -7q7 0 29.5 2.5t27.5 2.5l-11 -57q-149 -26 -220.5 -71.5t-71.5 -113.5q0 -69 66.5 -105t186.5 -36h63l4 -3l-77 -55h-21q-128 0 -186.5 43t-58.5 133q0 65 25.5 106.5t121.5 103.5z
M242 117l55 -28l-26 -50l-56 29zM164 85l53 -29l-24 -49l-56 29z" />
    <glyph glyph-name="uni0684" unicode="&#x684;" horiz-adv-x="393" arabic-form="isolated" 
d="M166 238q-6 0 -21 0.5t-19 0.5q-40 0 -98 -13q17 48 39 62t73 14q2 0 58 -7t90 -7q7 0 29.5 2.5t27.5 2.5l-11 -57q-149 -26 -220.5 -71.5t-71.5 -113.5q0 -69 66.5 -105t186.5 -36h63l4 -3l-77 -55h-21q-128 0 -186.5 43t-58.5 133q0 65 25.5 106.5t121.5 103.5z
M194 137l55 -28l-26 -50l-56 29zM209 53l55 -29l-26 -52l-53 31z" />
    <glyph glyph-name="afii57507" unicode="&#x686;" horiz-adv-x="393" arabic-form="isolated" 
d="M166 238q-6 0 -21 0.5t-19 0.5q-40 0 -98 -13q17 48 39 62t73 14q2 0 58 -7t90 -7q7 0 29.5 2.5t27.5 2.5l-11 -57q-149 -26 -220.5 -71.5t-71.5 -113.5q0 -69 66.5 -105t186.5 -36h63l4 -3l-77 -55h-21q-128 0 -186.5 43t-58.5 133q0 65 25.5 106.5t121.5 103.5z
M237 152l56 -28l-26 -52l-56 31zM226 61l55 -31l-24 -49l-56 31zM160 120l55 -29l-26 -49l-56 29z" />
    <glyph glyph-name="uni0687" unicode="&#x687;" horiz-adv-x="393" arabic-form="isolated" 
d="M166 238q-6 0 -21 0.5t-19 0.5q-40 0 -98 -13q17 48 39 62t73 14q2 0 58 -7t90 -7q7 0 29.5 2.5t27.5 2.5l-11 -57q-149 -26 -220.5 -71.5t-71.5 -113.5q0 -69 66.5 -105t186.5 -36h63l4 -3l-77 -55h-21q-128 0 -186.5 43t-58.5 133q0 65 25.5 106.5t121.5 103.5z
M245 165l56 -29l-25 -49l-55 29zM262 80l57 -31l-27 -49l-56 31zM185 48l56 -29l-27 -49l-55 28zM223 103l-27 -49l-53 30l23 49z" />
    <glyph glyph-name="uni0688" unicode="&#x688;" horiz-adv-x="237" arabic-form="isolated" 
d="M237 160v-60h-154q-20 0 -35 11.5t-15 27.5q0 26 7 45h7q5 -24 36 -24h133q0 132 -89 161l6 65q54 -27 79 -81.5t25 -144.5zM223 448v-42h-205v29h24q53 0 53 44q0 37 -12 76l-6 27l-10 5q1 19 9 36q2 -9 14 -13l16 -5q0 -9 -3 -31l-8 2q11 -40 11 -72q0 -9 -2 -27
l-2 -15q50 31 78 31q43 0 43 -45zM196 447q0 17 -31 17q-18 0 -55 -17l-22 -12h71q37 0 37 12z" />
    <glyph glyph-name="uni068C" unicode="&#x68c;" horiz-adv-x="237" arabic-form="isolated" 
d="M237 160v-60h-154q-20 0 -35 11.5t-15 27.5q0 26 7 45h7q5 -24 36 -24h133q0 132 -89 161l6 65q54 -27 79 -81.5t25 -144.5zM139 526l55 -28l-26 -50l-56 29zM61 494l53 -29l-24 -49l-56 29z" />
    <glyph glyph-name="uni068D" unicode="&#x68d;" horiz-adv-x="237" arabic-form="isolated" 
d="M237 160v-60h-154q-20 0 -35 11.5t-15 27.5q0 26 7 45h7q5 -24 36 -24h133q0 132 -89 161l6 65q54 -27 79 -81.5t25 -144.5zM159 48l55 -28l-26 -50l-56 29zM81 16l53 -29l-24 -49l-56 29z" />
    <glyph glyph-name="uni068E" unicode="&#x68e;" horiz-adv-x="237" arabic-form="isolated" 
d="M237 160v-60h-154q-20 0 -35 11.5t-15 27.5q0 26 7 45h7q5 -24 36 -24h133q0 132 -89 161l6 65q54 -27 79 -81.5t25 -144.5zM81 595l56 -29l-27 -49l-55 29zM147 533l56 -28l-27 -49l-56 29zM69 503l56 -28l-27 -52l-55 31z" />
    <glyph glyph-name="uni0691" unicode="&#x691;" horiz-adv-x="342" arabic-form="isolated" 
d="M342 183v-83q0 -52 -61 -107.5t-106 -55.5q-30 0 -50 6l-50 16q-9 3 -25.5 10t-23.5 9l4 14q72 -14 91 -14q63 0 129.5 55.5t66.5 107.5q0 45 -51 106l20 54q31 -31 43.5 -57t12.5 -61zM327 405v-42h-205v29h24q53 0 53 44q0 37 -12 76l-6 27l-10 5q1 19 9 36
q2 -9 14 -13l16 -5q0 -8 -3 -31l-8 2q11 -40 11 -72q0 -9 -2 -27l-2 -15q50 31 78 31q43 0 43 -45zM300 404q0 17 -31 17q-18 0 -55 -17l-22 -12h71q37 0 37 12z" />
    <glyph glyph-name="afii57508" unicode="&#x698;" horiz-adv-x="342" arabic-form="isolated" 
d="M342 183v-83q0 -52 -61 -107.5t-106 -55.5q-30 0 -50 6l-50 16q-9 3 -25.5 10t-23.5 9l4 14q72 -14 91 -14q63 0 129.5 55.5t66.5 107.5q0 45 -51 106l20 54q31 -31 43.5 -57t12.5 -61zM210 506l56 -29l-27 -50l-55 29zM278 446l56 -31l-27 -49l-56 31zM198 414l56 -29
l-25 -49l-55 28z" />
    <glyph glyph-name="uni06A4" unicode="&#x6a4;" horiz-adv-x="552" arabic-form="isolated" 
d="M552 198v-98h-314q-117 0 -170.5 27t-53.5 90q0 30 16 71l19 41l14 -8q-23 -48 -23 -74q0 -45 48.5 -66t156.5 -21h252q-82 22 -82 65q0 36 24.5 73t50.5 37q62 0 62 -137zM517 204q0 64 -32 64q-22 0 -22 -25q0 -15 10 -23t44 -16zM424 540l56 -29l-27 -49l-55 29z
M490 478l56 -28l-27 -49l-56 29zM412 448l56 -28l-27 -52l-55 31z" />
    <glyph glyph-name="uni06A6" unicode="&#x6a6;" horiz-adv-x="552" arabic-form="isolated" 
d="M552 198v-98h-314q-117 0 -170.5 27t-53.5 90q0 30 16 71l19 41l14 -8q-23 -48 -23 -74q0 -45 48.5 -66t156.5 -21h252q-82 22 -82 65q0 36 24.5 73t50.5 37q62 0 62 -137zM517 204q0 64 -32 64q-22 0 -22 -25q0 -15 10 -23t44 -16zM477 560l56 -29l-25 -49l-55 29z
M494 475l57 -31l-27 -49l-56 31zM417 443l56 -29l-27 -49l-55 28zM455 498l-27 -49l-53 30l23 49z" />
    <glyph glyph-name="afii57567" unicode="&#x6a9;" horiz-adv-x="568" arabic-form="isolated" 
d="M160 160h370q-25 37 -55.5 63t-83.5 57l-12 -9l-41 30q-21 17 -21 28q0 57 28 91t94 56l95 37v-58l-71 -23q-101 -34 -101 -49q0 -7 22 -25l27 -21q115 -91 157 -177v-60h-408q-84 0 -118.5 20.5t-34.5 69.5q0 26 15 69l20 40l12 -7q-19 -39 -19 -69q0 -63 125 -63z" />
    <glyph glyph-name="uni06AD" unicode="&#x6ad;" horiz-adv-x="421" arabic-form="isolated" 
d="M295 309q0 -37 -24.5 -57.5t-69.5 -20.5q-42 0 -91 19l4 7q13 0 20 -3l34 -1h9q35 0 61.5 12t26.5 27q0 7 -6.5 12t-13.5 5q-12 0 -14 -1l-23 -1q-21 0 -21 20q0 29 30.5 69.5t61.5 50.5l-6 -46q-57 -14 -57 -43q0 -10 17 -10q10 0 12 1l19 1q17 1 24 -9t7 -32zM421 167
v-67h-253q-84 0 -118.5 20.5t-34.5 69.5q0 26 15 69l20 40l12 -7q-19 -44 -19 -69q0 -63 125 -63h218l-43 289l-16 8q0 53 15 84l6 -2q0 -19 24 -29l36 -14q0 -20 -11 -67l-17 6zM171 615l56 -29l-27 -49l-55 29zM237 553l56 -28l-27 -49l-56 29zM159 523l56 -28l-27 -52
l-55 31z" />
    <glyph glyph-name="afii57509" unicode="&#x6af;" horiz-adv-x="568" arabic-form="isolated" 
d="M160 160h370q-25 37 -55.5 63t-83.5 57l-12 -9l-41 30q-21 17 -21 28q0 57 28 91t94 56l95 37v-58l-71 -23q-101 -34 -101 -49q0 -7 22 -25l27 -21q115 -91 157 -177v-60h-408q-84 0 -118.5 20.5t-34.5 69.5q0 26 15 69l20 40l12 -7q-19 -39 -19 -69q0 -63 125 -63z
M534 608v-60q-133 -48 -224 -105v38q17 17 87 57.5t137 69.5z" />
    <glyph glyph-name="uni06B1" unicode="&#x6b1;" horiz-adv-x="568" arabic-form="isolated" 
d="M160 160h370q-25 37 -55.5 63t-83.5 57l-12 -9l-41 30q-21 17 -21 28q0 57 28 91t94 56l95 37v-58l-71 -23q-101 -34 -101 -49q0 -7 22 -25l27 -21q115 -91 157 -177v-60h-408q-84 0 -118.5 20.5t-34.5 69.5q0 26 15 69l20 40l12 -7q-19 -39 -19 -69q0 -63 125 -63z
M534 608v-60q-133 -48 -224 -105v38q17 17 87 57.5t137 69.5zM407 623l49 -14l-17 -36l-52 15zM336 591l49 -15l-19 -35l-50 15z" />
    <glyph glyph-name="uni06B3" unicode="&#x6b3;" horiz-adv-x="568" arabic-form="isolated" 
d="M160 160h370q-25 37 -55.5 63t-83.5 57l-12 -9l-41 30q-21 17 -21 28q0 57 28 91t94 56l95 37v-58l-71 -23q-101 -34 -101 -49q0 -7 22 -25l27 -21q115 -91 157 -177v-60h-408q-84 0 -118.5 20.5t-34.5 69.5q0 26 15 69l20 40l12 -7q-19 -39 -19 -69q0 -63 125 -63z
M534 608v-60q-133 -48 -224 -105v38q17 17 87 57.5t137 69.5zM288 48l55 -28l-26 -50l-56 29zM303 -36l55 -29l-26 -52l-53 31z" />
    <glyph glyph-name="uni06BA" unicode="&#x6ba;" horiz-adv-x="369" arabic-form="isolated" 
d="M369 160v-60q0 -79 -48 -114.5t-153 -35.5q-145 0 -145 105q0 41 11.5 77t41.5 99l14 -7q-40 -79 -40 -128q0 -42 30.5 -65t86.5 -23q75 0 125.5 29t50.5 74q0 69 -35 112l28 70q33 -56 33 -133z" />
    <glyph glyph-name="uni06BB" unicode="&#x6bb;" horiz-adv-x="369" arabic-form="isolated" 
d="M369 160v-60q0 -79 -48 -114.5t-153 -35.5q-145 0 -145 105q0 41 11.5 77t41.5 99l14 -7q-40 -79 -40 -128q0 -42 30.5 -65t86.5 -23q75 0 125.5 29t50.5 74q0 69 -35 112l28 70q33 -56 33 -133zM306 377v-42h-205v29h24q53 0 53 44q0 37 -12 76l-6 27l-10 5q1 19 9 36
q2 -9 14 -13l16 -5q0 -8 -3 -31l-8 2q11 -40 11 -72q0 -9 -2 -27l-2 -15q50 31 78 31q43 0 43 -45zM279 376q0 17 -31 17q-18 0 -55 -17l-22 -12h71q37 0 37 12z" />
    <glyph glyph-name="afii57470" unicode="&#x647;" horiz-adv-x="315" arabic-form="initial" 
d="M268 159q0 -21 -12.5 -47t-24.5 -26q-11 0 -50 18.5t-62 33.5q-42 -26 -61 -32t-51 -6h-30v60h30q25 0 62 9l-18 14q-9 8 -9 18q0 8 5 17l35 60q9 20 28 24q-25 16 -25 22q0 7 32 63q67 -67 109 -133t42 -95zM148 232q0 34 -28 34q-17 0 -30 -10.5t-13 -25.5
q0 -14 42 -36q29 20 29 38zM231 154q0 15 -48 71q0 -39 -27 -52l41 -21q20 -10 25 -10q9 0 9 12z" />
    <glyph glyph-name="uni06C0" unicode="&#x6c0;" horiz-adv-x="197" arabic-form="isolated" 
d="M183 202q0 -60 -25 -85.5t-80 -25.5q-27 0 -43 11.5t-16 30.5q0 27 11 56l24 54l-6 1l21 57q74 -38 94 -55.5t20 -43.5zM154 175q0 17 -72 51q-21 -22 -24.5 -28t-3.5 -17q0 -17 10 -26.5t26 -9.5q18 0 41 10.5t23 19.5zM146 390q0 -13 -33 -26l-63 -22q0 17 34 28
q-22 12 -22 26q0 11 20 30.5t32 19.5q18 0 18 -16q0 -7 -8 -21q-9 9 -24 9q-7 0 -14.5 -3t-7.5 -6q0 -6 16 -15.5t27 -9.5q12 0 25 6z" />
    <glyph glyph-name="uni06C1" unicode="&#x6c1;" horiz-adv-x="272" arabic-form="final" 
d="M272 160v-60h-26q-22 0 -36.5 8.5t-39.5 33.5l-21 24q-9 9 -22 9q-17 0 -48 -37.5t-53 -88.5l-18 9q70 172 140 172q13 0 51 -35t52 -35h21z" />
    <glyph glyph-name="uni06C5" unicode="&#x6c5;" horiz-adv-x="302" arabic-form="isolated" 
d="M302 160v-40q0 -60 -46 -117t-102 -57q-48 0 -92 19l-46 15l6 12l41 -8q18 -6 37 -6q71 0 133 65l5 5q-6 -1 -15 -1q-17 0 -43 9l-46 12q-2 0 -16 -6l-5 3q17 27 36 27q81 -20 90 -20q14 0 21 3l20 24q-96 0 -96 70q0 38 20 68.5t46 30.5q52 0 52 -108zM281 159
q-14 56 -41 56q-23 0 -23 -24q0 -32 64 -32z" />
    <glyph glyph-name="uni06C6" unicode="&#x6c6;" horiz-adv-x="302" arabic-form="isolated" 
d="M302 160v-40q0 -60 -46 -117t-102 -57q-40 0 -138 34l6 12q63 -14 78 -14q50 0 87 23.5t93 97.5q-96 0 -96 70q0 38 20 68.5t46 30.5q52 0 52 -108zM281 159q-14 56 -41 56q-8 0 -15.5 -7.5t-7.5 -16.5q0 -32 64 -32zM277 411h29l-47 -81h-18l-47 81h29l27 -49z" />
    <glyph glyph-name="uni06C7" unicode="&#x6c7;" horiz-adv-x="302" arabic-form="isolated" 
d="M302 160v-40q0 -60 -46 -117t-102 -57q-40 0 -138 34l6 12q63 -14 78 -14q50 0 87 23.5t93 97.5q-96 0 -96 70q0 38 20 68.5t46 30.5q52 0 52 -108zM281 159q-14 56 -41 56q-8 0 -15.5 -7.5t-7.5 -16.5q0 -32 64 -32zM292 375q0 -3 -1 -12t-1 -13l-31 18l-22 -26
q-21 -26 -43 -26h-23q1 1 16.5 10.5t25.5 17.5l32 32q-23 12 -23 34t13 39.5t29 17.5q9 0 16 -10t7 -24q0 -10 -10 -40l10 -8q5 -3 5 -10zM263 404l2 9q0 9 -6 17t-11 8q-7 0 -7 -7q0 -9 8 -17z" />
    <glyph glyph-name="uni06C8" unicode="&#x6c8;" horiz-adv-x="302" arabic-form="isolated" 
d="M302 160v-40q0 -60 -46 -117t-102 -57q-40 0 -138 34l6 12q63 -14 78 -14q50 0 87 23.5t93 97.5q-96 0 -96 70q0 38 20 68.5t46 30.5q52 0 52 -108zM281 159q-14 56 -41 56q-8 0 -15.5 -7.5t-7.5 -16.5q0 -32 64 -32zM248 359q0 -21 -15 -44l-2 1q1 8 1 19q0 34 -16 154
q2 6 16 30q16 -103 16 -160z" />
    <glyph glyph-name="uni06C9" unicode="&#x6c9;" horiz-adv-x="302" arabic-form="isolated" 
d="M302 160v-40q0 -60 -46 -117t-102 -57q-40 0 -138 34l6 12q63 -14 78 -14q50 0 87 23.5t93 97.5q-96 0 -96 70q0 38 20 68.5t46 30.5q52 0 52 -108zM281 159q-14 56 -41 56q-8 0 -15.5 -7.5t-7.5 -16.5q0 -32 64 -32zM259 411l47 -81h-29l-27 49l-27 -49h-29l47 81h18z
" />
    <glyph glyph-name="uni06CB" unicode="&#x6cb;" horiz-adv-x="302" arabic-form="isolated" 
d="M302 160v-40q0 -60 -46 -117t-102 -57q-40 0 -138 34l6 12q63 -14 78 -14q50 0 87 23.5t93 97.5q-96 0 -96 70q0 38 20 68.5t46 30.5q52 0 52 -108zM281 159q-14 56 -41 56q-8 0 -15.5 -7.5t-7.5 -16.5q0 -32 64 -32zM185 497l56 -29l-27 -49l-55 29zM251 435l56 -28
l-27 -49l-56 29zM173 405l56 -28l-27 -52l-55 31z" />
    <glyph glyph-name="afii57555" unicode="&#x6cc;" horiz-adv-x="447" arabic-form="isolated" 
d="M425 273q0 -9 -2.5 -22.5t-2.5 -14.5q-24 31 -63 31q-26 0 -59 -31t-33 -53q0 -14 31 -14h66q44 0 44 -28q0 -82 -70 -126.5t-190 -44.5q-130 0 -130 100q0 38 10 67.5t49 109.5l15 -4q-46 -82 -46 -131q0 -84 112 -84q53 0 134.5 30.5t81.5 47.5q0 12 -17 12h-81
q-14 0 -25.5 10.5t-11.5 26.5q0 20 20 62q23 50 55 78t64 28q22 0 35.5 -14t13.5 -36z" />
    <glyph glyph-name="uni06D0" unicode="&#x6d0;" horiz-adv-x="447" arabic-form="isolated" 
d="M425 273q0 -9 -2.5 -22.5t-2.5 -14.5q-24 31 -63 31q-26 0 -59 -31t-33 -53q0 -14 31 -14h66q44 0 44 -28q0 -82 -70 -126.5t-190 -44.5q-130 0 -130 100q0 38 10 67.5t49 109.5l15 -4q-46 -82 -46 -131q0 -84 112 -84q53 0 134.5 30.5t81.5 47.5q0 12 -17 12h-81
q-14 0 -25.5 10.5t-11.5 26.5q0 20 20 62q23 50 55 78t64 28q22 0 35.5 -14t13.5 -36zM175 -60l32 -8l-12 -23l-31 8zM185 -96l31 -8l-10 -23l-33 8z" />
    <glyph glyph-name="uni06D2" unicode="&#x6d2;" horiz-adv-x="568" arabic-form="isolated" 
d="M568 42v-2l-86 -56h-399q-39 0 -48 3.5t-12 17.5q0 48 16.5 75.5t66.5 54.5l62 34q16 9 40.5 32t42.5 41t21 18q35 0 35 -58q0 -30 -4 -42q-21 42 -42 42q-17 0 -39 -26l-19 -28q-12 -20 -23 -23q-11 -6 -46 -24t-59 -31.5t-24 -18.5q0 -9 33 -9h484z" />
    <glyph glyph-name="uni06D3" unicode="&#x6d3;" horiz-adv-x="568" arabic-form="isolated" 
d="M568 42v-2l-86 -56h-399q-39 0 -48 3.5t-12 17.5q0 48 16.5 75.5t66.5 54.5l62 34q16 9 40.5 32t42.5 41t21 18q35 0 35 -58q0 -30 -4 -42q-21 42 -42 42q-17 0 -39 -26l-19 -28q-12 -20 -23 -23q-11 -6 -46 -24t-59 -31.5t-24 -18.5q0 -9 33 -9h484zM228 287
q0 -13 -33 -26l-63 -22q0 17 34 28q-22 12 -22 26q0 11 20 30.5t32 19.5q18 0 18 -16q0 -7 -8 -21q-9 9 -24 9q-7 0 -14.5 -3t-7.5 -6q0 -6 16 -15.5t27 -9.5q12 0 25 6z" />
    <glyph glyph-name="uniFB51" unicode="&#x671;" horiz-adv-x="161" arabic-form="final" 
d="M161 160v-60h-48q-32 0 -45.5 34.5t-19.5 112.5l-6 81q-1 44 -6.5 70t-10.5 34t-18 21l42 65q11 -36 19 -98v-20t1 -40t2 -50t4.5 -53.5t8 -48t12 -35.5t17.5 -13h48zM119 589q0 -20 -18 -34.5t-40 -14.5h-59q-9 0 -9 -15v-7l1 -2v-3l-1 -1q-15 20 -15 35q0 22 24 22h10
q36 55 79 55q28 0 28 -35zM89 589q0 14 -12 14q-20 0 -48 -34h28q32 0 32 20z" />
    <glyph glyph-name="uniFB53" unicode="&#x67b;" horiz-adv-x="499" arabic-form="final" 
d="M499 194v-94h-325q-73 0 -113.5 28.5t-40.5 83.5q0 42 14 66l24 45l11 -7l-14 -30q-11 -24 -11 -43q0 -39 37.5 -61t101.5 -22h288v9q0 73 -39 104l25 55l19 -22q23 -41 23 -112zM254 48l55 -28l-26 -50l-56 29zM269 -36l55 -29l-26 -52l-53 31z" />
    <glyph glyph-name="uniFB54" unicode="&#x67b;" horiz-adv-x="170" arabic-form="initial" 
d="M170 183v-83h-193v60h169q0 38 -7 56t-35 48l28 56q27 -36 32.5 -57.5t5.5 -79.5zM63 48l55 -28l-26 -50l-56 29zM78 -36l55 -29l-26 -52l-53 31z" />
    <glyph glyph-name="uniFB55" unicode="&#x67b;" horiz-adv-x="170" arabic-form="medial" 
d="M170 183v-83h-193v60h169q0 38 -7 56t-35 48l28 56q27 -36 32.5 -57.5t5.5 -79.5zM63 48l55 -28l-26 -50l-56 29zM78 -36l55 -29l-26 -52l-53 31z" />
    <glyph glyph-name="afii62958" unicode="&#x67e;" horiz-adv-x="499" arabic-form="final" 
d="M499 194v-94h-325q-73 0 -113.5 28.5t-40.5 83.5q0 42 14 66l24 45l11 -7l-14 -30q-11 -24 -11 -43q0 -39 37.5 -61t101.5 -22h288v9q0 73 -39 104l25 55l19 -22q23 -41 23 -112zM293 48l56 -28l-27 -50l-56 29zM281 -43l55 -29l-26 -52l-56 31zM215 16l56 -29l-26 -49
l-57 29z" />
    <glyph glyph-name="afii62956" unicode="&#x67e;" horiz-adv-x="170" arabic-form="initial" 
d="M111 48l55 -28l-26 -50l-56 29zM99 -43l55 -29l-26 -52l-56 31zM33 16l53 -29l-24 -49l-56 29zM170 183v-83h-193v60h169q0 38 -7 56t-35 48l28 56q27 -36 32.5 -57.5t5.5 -79.5z" />
    <glyph glyph-name="afii52957" unicode="&#x67e;" horiz-adv-x="170" arabic-form="medial" 
d="M111 48l55 -28l-26 -50l-56 29zM99 -43l55 -29l-26 -52l-56 31zM33 16l53 -29l-24 -49l-56 29zM170 183v-83h-193v60h169q0 38 -7 56t-35 48l28 56q27 -36 32.5 -57.5t5.5 -79.5z" />
    <glyph glyph-name="uniFB5B" unicode="&#x680;" horiz-adv-x="499" arabic-form="final" 
d="M499 194v-94h-325q-73 0 -113.5 28.5t-40.5 83.5q0 42 14 66l24 45l11 -7l-14 -30q-11 -24 -11 -43q0 -39 37.5 -61t101.5 -22h288v9q0 73 -39 104l25 55l19 -22q23 -41 23 -112zM284 48l56 -29l-25 -49l-55 29zM301 -37l57 -31l-27 -49l-56 31zM224 -69l56 -29l-27 -49
l-55 28zM262 -14l-27 -49l-53 30l23 49z" />
    <glyph glyph-name="uniFB5C" unicode="&#x680;" horiz-adv-x="170" arabic-form="initial" 
d="M170 183v-83h-193v60h169q0 38 -7 56t-35 48l28 56q27 -36 32.5 -57.5t5.5 -79.5zM100 48l56 -29l-25 -49l-55 29zM117 -37l57 -31l-27 -49l-56 31zM40 -69l56 -29l-27 -49l-55 28zM78 -14l-27 -49l-53 30l23 49z" />
    <glyph glyph-name="uniFB5D" unicode="&#x680;" horiz-adv-x="170" arabic-form="medial" 
d="M170 183v-83h-193v60h169q0 38 -7 56t-35 48l28 56q27 -36 32.5 -57.5t5.5 -79.5zM100 48l56 -29l-25 -49l-55 29zM117 -37l57 -31l-27 -49l-56 31zM40 -69l56 -29l-27 -49l-55 28zM78 -14l-27 -49l-53 30l23 49z" />
    <glyph glyph-name="uniFB5F" unicode="&#x67a;" horiz-adv-x="499" arabic-form="final" 
d="M499 194v-94h-325q-73 0 -113.5 28.5t-40.5 83.5q0 42 14 66l24 45l11 -7l-14 -30q-11 -24 -11 -43q0 -39 37.5 -61t101.5 -22h288v9q0 73 -39 104l25 55l19 -22q23 -41 23 -112zM233 526l55 -28l-26 -50l-56 29zM248 442l55 -29l-26 -52l-53 31z" />
    <glyph glyph-name="uniFB60" unicode="&#x67a;" horiz-adv-x="170" arabic-form="initial" 
d="M170 183v-83h-193v60h169q0 38 -7 56t-35 48l28 56q27 -36 32.5 -57.5t5.5 -79.5zM49 526l55 -28l-26 -50l-56 29zM64 442l55 -29l-26 -52l-53 31z" />
    <glyph glyph-name="uniFB61" unicode="&#x67a;" horiz-adv-x="170" arabic-form="medial" 
d="M170 183v-83h-193v60h169q0 38 -7 56t-35 48l28 56q27 -36 32.5 -57.5t5.5 -79.5zM49 526l55 -28l-26 -50l-56 29zM64 442l55 -29l-26 -52l-53 31z" />
    <glyph glyph-name="uniFB63" unicode="&#x67f;" horiz-adv-x="499" arabic-form="final" 
d="M499 194v-94h-325q-73 0 -113.5 28.5t-40.5 83.5q0 42 14 66l24 45l11 -7l-14 -30q-11 -24 -11 -43q0 -39 37.5 -61t101.5 -22h288v9q0 73 -39 104l25 55l19 -22q23 -41 23 -112zM270 526l56 -29l-25 -49l-55 29zM287 441l57 -31l-27 -49l-56 31zM210 409l56 -29l-27 -49
l-55 28zM248 464l-27 -49l-53 30l23 49z" />
    <glyph glyph-name="uniFB64" unicode="&#x67f;" horiz-adv-x="170" arabic-form="initial" 
d="M170 183v-83h-193v60h169q0 38 -7 56t-35 48l28 56q27 -36 32.5 -57.5t5.5 -79.5zM86 526l56 -29l-25 -49l-55 29zM103 441l57 -31l-27 -49l-56 31zM26 409l56 -29l-27 -49l-55 28zM64 464l-27 -49l-53 30l23 49z" />
    <glyph glyph-name="uniFB65" unicode="&#x67f;" horiz-adv-x="170" arabic-form="medial" 
d="M170 183v-83h-193v60h169q0 38 -7 56t-35 48l28 56q27 -36 32.5 -57.5t5.5 -79.5zM86 526l56 -29l-25 -49l-55 29zM103 441l57 -31l-27 -49l-56 31zM26 409l56 -29l-27 -49l-55 28zM64 464l-27 -49l-53 30l23 49z" />
    <glyph glyph-name="uniFB67" unicode="&#x679;" horiz-adv-x="499" arabic-form="final" 
d="M499 194v-94h-325q-73 0 -113.5 28.5t-40.5 83.5q0 42 14 66l24 45l11 -7l-14 -30q-11 -24 -11 -43q0 -39 37.5 -61t101.5 -22h288v9q0 73 -39 104l25 55l19 -22q23 -41 23 -112zM359 405v-42h-205v29h24q53 0 53 44q0 37 -12 76l-6 27l-10 5q1 19 9 36q2 -9 14 -13
l16 -5q0 -8 -3 -31l-8 2q11 -40 11 -72q0 -9 -2 -27l-2 -15q50 31 78 31q43 0 43 -45zM332 404q0 17 -31 17q-18 0 -55 -17l-22 -12h71q37 0 37 12z" />
    <glyph glyph-name="uniFB68" unicode="&#x679;" horiz-adv-x="170" arabic-form="initial" 
d="M170 183v-83h-193v60h169q0 38 -7 56t-35 48l28 56q27 -36 32.5 -57.5t5.5 -79.5zM189 405v-42h-205v29h24q53 0 53 44q0 37 -12 76l-6 27l-10 5q1 19 9 36q2 -9 14 -13l16 -5q0 -8 -3 -31l-8 2q11 -40 11 -72q0 -9 -2 -27l-2 -15q50 31 78 31q43 0 43 -45zM162 404
q0 17 -31 17q-18 0 -55 -17l-22 -12h71q37 0 37 12z" />
    <glyph glyph-name="uniFB69" unicode="&#x679;" horiz-adv-x="170" arabic-form="medial" 
d="M170 183v-83h-193v60h169q0 38 -7 56t-35 48l28 56q27 -36 32.5 -57.5t5.5 -79.5zM189 405v-42h-205v29h24q53 0 53 44q0 37 -12 76l-6 27l-10 5q1 19 9 36q2 -9 14 -13l16 -5q0 -8 -3 -31l-8 2q11 -40 11 -72q0 -9 -2 -27l-2 -15q50 31 78 31q43 0 43 -45zM162 404
q0 17 -31 17q-18 0 -55 -17l-22 -12h71q37 0 37 12z" />
    <glyph glyph-name="uniFB6B" unicode="&#x6a4;" horiz-adv-x="552" arabic-form="final" 
d="M552 198v-98h-314q-117 0 -170.5 27t-53.5 90q0 30 16 71l19 41l14 -8q-23 -48 -23 -74q0 -45 48.5 -66t156.5 -21h252q-82 22 -82 65q0 36 24.5 73t50.5 37q62 0 62 -137zM517 204q0 64 -32 64q-22 0 -22 -25q0 -15 10 -23t44 -16zM424 540l56 -29l-27 -49l-55 29z
M490 478l56 -28l-27 -49l-56 29zM412 448l56 -28l-27 -52l-55 31z" />
    <glyph glyph-name="uniFB6C" unicode="&#x6a4;" horiz-adv-x="188" arabic-form="initial" 
d="M188 189v-89h-211v60h182q0 13 -7 57l-28 -8q-14 -5 -27 -5q-29 0 -44.5 14.5t-15.5 40.5q0 50 19 85.5t48 35.5q37 0 60.5 -55t23.5 -136zM132 278q-5 16 -18.5 29.5t-24.5 13.5q-9 0 -15 -8t-6 -19q0 -28 30 -28q10 0 34 12zM33 574l56 -29l-27 -49l-55 29zM99 512
l56 -28l-27 -49l-56 29zM21 482l56 -28l-27 -52l-55 31z" />
    <glyph glyph-name="uniFB6D" unicode="&#x6a4;" horiz-adv-x="183" arabic-form="medial" 
d="M183 218v-118h-206v60h116q43 0 68 8q-71 10 -92.5 25t-21.5 50q0 39 21 70.5t49 31.5q31 0 48.5 -36t17.5 -91zM153 219q-17 67 -49 67q-9 0 -15.5 -8t-6.5 -18q0 -22 13.5 -30t57.5 -11zM40 574l56 -29l-27 -49l-55 29zM106 512l56 -28l-27 -49l-56 29zM28 482l56 -28
l-27 -52l-55 31z" />
    <glyph glyph-name="uniFB6F" unicode="&#x6a6;" horiz-adv-x="552" arabic-form="final" 
d="M552 198v-98h-314q-117 0 -170.5 27t-53.5 90q0 30 16 71l19 41l14 -8q-23 -48 -23 -74q0 -45 48.5 -66t156.5 -21h252q-82 22 -82 65q0 36 24.5 73t50.5 37q62 0 62 -137zM517 204q0 64 -32 64q-22 0 -22 -25q0 -15 10 -23t44 -16zM477 560l56 -29l-25 -49l-55 29z
M494 475l57 -31l-27 -49l-56 31zM417 443l56 -29l-27 -49l-55 28zM455 498l-27 -49l-53 30l23 49z" />
    <glyph glyph-name="uniFB70" unicode="&#x6a6;" horiz-adv-x="188" arabic-form="initial" 
d="M188 189v-89h-211v60h182q0 13 -7 57l-28 -8q-14 -5 -27 -5q-29 0 -44.5 14.5t-15.5 40.5q0 50 19 85.5t48 35.5q37 0 60.5 -55t23.5 -136zM132 278q-5 16 -18.5 29.5t-24.5 13.5q-9 0 -15 -8t-6 -19q0 -28 30 -28q10 0 34 12zM86 588l56 -29l-25 -49l-55 29zM103 503
l57 -31l-27 -49l-56 31zM26 471l56 -29l-27 -49l-55 28zM64 526l-27 -49l-53 30l23 49z" />
    <glyph glyph-name="uniFB71" unicode="&#x6a6;" horiz-adv-x="183" arabic-form="medial" 
d="M183 218v-118h-206v60h116q43 0 68 8q-71 10 -92.5 25t-21.5 50q0 39 21 70.5t49 31.5q31 0 48.5 -36t17.5 -91zM153 219q-17 67 -49 67q-9 0 -15.5 -8t-6.5 -18q0 -22 13.5 -30t57.5 -11zM86 588l56 -29l-25 -49l-55 29zM103 503l57 -31l-27 -49l-56 31zM26 471l56 -29
l-27 -49l-55 28zM64 526l-27 -49l-53 30l23 49z" />
    <glyph glyph-name="uniFB73" unicode="&#x684;" horiz-adv-x="369" arabic-form="final" 
d="M369 160v-60h-48q-41 0 -58.5 15.5t-17.5 51.5l2 34l5 18q-111 -36 -160.5 -73t-49.5 -95q0 -69 66.5 -105t186.5 -36h63l4 -3l-77 -55h-21q-128 0 -186.5 43t-58.5 133q0 58 29 103q20 30 37 42t98 58q-16 5 -56 5l-56 -4l-44 -9q13 43 38.5 59.5t74.5 16.5
q23 0 72.5 -6.5t65.5 -6.5q39 0 67 6l-14 -60l-31 -3q-10 -4 -32 -6l-1 -20v-7q0 -36 54 -36h48zM159 131l55 -28l-26 -50l-56 29zM174 47l55 -29l-26 -52l-53 31z" />
    <glyph glyph-name="uniFB74" unicode="&#x684;" horiz-adv-x="371" arabic-form="initial" 
d="M371 160v-60h-394v60h277q-61 45 -95 61.5t-74 16.5q-22 0 -35 -1q28 63 84 63q33 0 83 -35q3 -2 25 -21t42.5 -36.5t40.5 -32.5t25 -15h21zM152 48l55 -28l-26 -50l-56 29zM167 -36l55 -29l-26 -52l-53 31z" />
    <glyph glyph-name="uniFB75" unicode="&#x684;" horiz-adv-x="371" arabic-form="medial" 
d="M371 160v-60h-394v60h277q-61 45 -95 61.5t-74 16.5q-22 0 -35 -1q28 63 84 63q33 0 83 -35q3 -2 25 -21t42.5 -36.5t40.5 -32.5t25 -15h21zM152 48l55 -28l-26 -50l-56 29zM167 -36l55 -29l-26 -52l-53 31z" />
    <glyph glyph-name="uniFB77" unicode="&#x683;" horiz-adv-x="369" arabic-form="final" 
d="M369 160v-60h-48q-41 0 -58.5 15.5t-17.5 51.5l2 34l5 18q-111 -36 -160.5 -73t-49.5 -95q0 -69 66.5 -105t186.5 -36h63l4 -3l-77 -55h-21q-128 0 -186.5 43t-58.5 133q0 58 29 103q20 30 37 42t98 58q-16 5 -56 5l-56 -4l-44 -9q13 43 38.5 59.5t74.5 16.5
q23 0 72.5 -6.5t65.5 -6.5q39 0 67 6l-14 -60l-31 -3q-10 -4 -32 -6l-1 -20v-7q0 -36 54 -36h48zM194 110l55 -28l-26 -50l-56 29zM116 78l53 -29l-24 -49l-56 29z" />
    <glyph glyph-name="uniFB78" unicode="&#x683;" horiz-adv-x="371" arabic-form="initial" 
d="M371 160v-60h-394v60h277q-61 45 -95 61.5t-74 16.5q-22 0 -35 -1q28 63 84 63q33 0 83 -35q3 -2 25 -21t42.5 -36.5t40.5 -32.5t25 -15h21zM200 48l55 -28l-26 -50l-56 29zM122 16l53 -29l-24 -49l-56 29z" />
    <glyph glyph-name="uniFB79" unicode="&#x683;" horiz-adv-x="371" arabic-form="medial" 
d="M371 160v-60h-394v60h277q-61 45 -95 61.5t-74 16.5q-22 0 -35 -1q28 63 84 63q33 0 83 -35q3 -2 25 -21t42.5 -36.5t40.5 -32.5t25 -15h21zM200 48l55 -28l-26 -50l-56 29zM122 16l53 -29l-24 -49l-56 29z" />
    <glyph glyph-name="afii62961" unicode="&#x686;" horiz-adv-x="369" arabic-form="final" 
d="M369 160v-60h-48q-41 0 -58.5 15.5t-17.5 51.5l2 34l5 18q-111 -36 -160.5 -73t-49.5 -95q0 -69 66.5 -105t186.5 -36h63l4 -3l-77 -55h-21q-128 0 -186.5 43t-58.5 133q0 58 29 103q20 30 37 42t98 58q-16 5 -56 5l-56 -4l-44 -9q13 43 38.5 59.5t74.5 16.5
q23 0 72.5 -6.5t65.5 -6.5q39 0 67 6l-14 -60l-31 -3q-10 -4 -32 -6l-1 -20v-7q0 -36 54 -36h48zM190 113l56 -28l-24 -50l-56 29zM180 22l53 -29l-24 -50l-55 29zM113 83l55 -29l-26 -49l-56 29z" />
    <glyph glyph-name="afii62959" unicode="&#x686;" horiz-adv-x="371" arabic-form="initial" 
d="M371 160v-60h-394v60h277q-61 45 -95 61.5t-74 16.5q-22 0 -35 -1q28 63 84 63q33 0 83 -35q3 -2 25 -21t42.5 -36.5t40.5 -32.5t25 -15h21zM187 48l53 -28l-24 -50l-56 29zM175 -43l55 -29l-26 -52l-56 31zM107 16l56 -29l-25 -49l-56 29z" />
    <glyph glyph-name="afii62960" unicode="&#x686;" horiz-adv-x="371" arabic-form="medial" 
d="M371 160v-60h-394v60h277q-61 45 -95 61.5t-74 16.5q-22 0 -35 -1q28 63 84 63q33 0 83 -35q3 -2 25 -21t42.5 -36.5t40.5 -32.5t25 -15h21zM187 48l53 -28l-24 -50l-56 29zM175 -43l55 -29l-26 -52l-56 31zM107 16l56 -29l-25 -49l-56 29z" />
    <glyph glyph-name="uniFB7f" unicode="&#x687;" horiz-adv-x="369" arabic-form="final" 
d="M369 160v-60h-48q-41 0 -58.5 15.5t-17.5 51.5l2 34l5 18q-111 -36 -160.5 -73t-49.5 -95q0 -69 66.5 -105t186.5 -36h63l4 -3l-77 -55h-21q-128 0 -186.5 43t-58.5 133q0 58 29 103q20 30 37 42t98 58q-16 5 -56 5l-56 -4l-44 -9q13 43 38.5 59.5t74.5 16.5
q23 0 72.5 -6.5t65.5 -6.5q39 0 67 6l-14 -60l-31 -3q-10 -4 -32 -6l-1 -20v-7q0 -36 54 -36h48zM192 147l56 -29l-25 -49l-55 29zM209 62l57 -31l-27 -49l-56 31zM132 30l56 -29l-27 -49l-55 28zM170 85l-27 -49l-53 30l23 49z" />
    <glyph glyph-name="uniFB80" unicode="&#x687;" horiz-adv-x="371" arabic-form="initial" 
d="M371 160v-60h-394v60h277q-61 45 -95 61.5t-74 16.5q-22 0 -35 -1q28 63 84 63q33 0 83 -35q3 -2 25 -21t42.5 -36.5t40.5 -32.5t25 -15h21zM196 48l56 -29l-25 -49l-55 29zM213 -37l57 -31l-27 -49l-56 31zM136 -69l56 -29l-27 -49l-55 28zM174 -14l-27 -49l-53 30
l23 49z" />
    <glyph glyph-name="uniFB81" unicode="&#x687;" horiz-adv-x="371" arabic-form="medial" 
d="M371 160v-60h-394v60h277q-61 45 -95 61.5t-74 16.5q-22 0 -35 -1q28 63 84 63q33 0 83 -35q3 -2 25 -21t42.5 -36.5t40.5 -32.5t25 -15h21zM196 48l56 -29l-25 -49l-55 29zM213 -37l57 -31l-27 -49l-56 31zM136 -69l56 -29l-27 -49l-55 28zM174 -14l-27 -49l-53 30
l23 49z" />
    <glyph glyph-name="uniFB83" unicode="&#x68d;" horiz-adv-x="237" arabic-form="final" 
d="M237 160v-60h-154q-20 0 -35 11.5t-15 27.5q0 26 7 45h7q5 -24 36 -24h133q0 132 -89 161l6 65q54 -27 79 -81.5t25 -144.5zM159 48l55 -28l-26 -50l-56 29zM81 16l53 -29l-24 -49l-56 29z" />
    <glyph glyph-name="uniFB85" unicode="&#x68c;" horiz-adv-x="237" arabic-form="final" 
d="M237 160v-60h-154q-20 0 -35 11.5t-15 27.5q0 26 7 45h7q5 -24 36 -24h133q0 132 -89 161l6 65q54 -27 79 -81.5t25 -144.5zM139 526l55 -28l-26 -50l-56 29zM61 494l53 -29l-24 -49l-56 29z" />
    <glyph glyph-name="uniFB87" unicode="&#x68e;" horiz-adv-x="237" arabic-form="final" 
d="M237 160v-60h-154q-20 0 -35 11.5t-15 27.5q0 26 7 45h7q5 -24 36 -24h133q0 132 -89 161l6 65q54 -27 79 -81.5t25 -144.5zM81 595l56 -29l-27 -49l-55 29zM147 533l56 -28l-27 -49l-56 29zM69 503l56 -28l-27 -52l-55 31z" />
    <glyph glyph-name="uniFB89" unicode="&#x688;" horiz-adv-x="237" arabic-form="final" 
d="M237 160v-60h-154q-20 0 -35 11.5t-15 27.5q0 26 7 45h7q5 -24 36 -24h133q0 132 -89 161l6 65q54 -27 79 -81.5t25 -144.5zM223 448v-42h-205v29h24q53 0 53 44q0 37 -12 76l-6 27l-10 5q1 19 9 36q2 -9 14 -13l16 -5q0 -9 -3 -31l-8 2q11 -40 11 -72q0 -9 -2 -27
l-2 -15q50 31 78 31q43 0 43 -45zM196 447q0 17 -31 17q-18 0 -55 -17l-22 -12h71q37 0 37 12z" />
    <glyph glyph-name="afii62962" unicode="&#x698;" horiz-adv-x="342" arabic-form="final" 
d="M342 183v-83q0 -52 -61 -107.5t-106 -55.5q-30 0 -50 6l-50 16q-9 3 -25.5 10t-23.5 9l4 14q72 -14 91 -14q63 0 129.5 55.5t66.5 107.5q0 45 -51 106l20 54q31 -31 43.5 -57t12.5 -61zM210 506l56 -29l-27 -50l-55 29zM278 446l56 -31l-27 -49l-56 31zM198 414l56 -29
l-25 -49l-55 28z" />
    <glyph glyph-name="uniFB8D" unicode="&#x691;" horiz-adv-x="342" arabic-form="final" 
d="M342 183v-83q0 -52 -61 -107.5t-106 -55.5q-30 0 -50 6l-50 16q-9 3 -25.5 10t-23.5 9l4 14q72 -14 91 -14q63 0 129.5 55.5t66.5 107.5q0 45 -51 106l20 54q31 -31 43.5 -57t12.5 -61zM327 405v-42h-205v29h24q53 0 53 44q0 37 -12 76l-6 27l-10 5q1 19 9 36
q2 -9 14 -13l16 -5q0 -8 -3 -31l-8 2q11 -40 11 -72q0 -9 -2 -27l-2 -15q50 31 78 31q43 0 43 -45zM300 404q0 17 -31 17q-18 0 -55 -17l-22 -12h71q37 0 37 12z" />
    <glyph glyph-name="afii62964" unicode="&#x6a9;" horiz-adv-x="652" arabic-form="final" 
d="M303 100h-143q-84 0 -118.5 20.5t-34.5 69.5q0 26 15 69l20 40l12 -7q-19 -39 -19 -69q0 -63 125 -63h146q60 0 97.5 16.5t37.5 45.5q0 19 -10 31t-40 27l-12 -9l-41 30q-21 17 -21 28q0 57 28 91t94 56l95 37v-58l-71 -23l-83 -33q-18 -11 -18 -16q0 -7 22 -25l27 -21
q55 -44 93 -84l36 -43q43 -50 68 -50h44v-60h-42q-25 0 -42 14.5t-58 65.5l-21 24q-19 22 -26 28q0 -63 -41.5 -97.5t-118.5 -34.5z" />
    <glyph glyph-name="afii52305" unicode="&#x6a9;" horiz-adv-x="275" arabic-form="initial" 
d="M275 160v-60h-298v60h260q-25 37 -55.5 63t-83.5 57l-12 -9l-39 30q-21 15 -21 28q0 58 27 91.5t93 55.5l97 37v-58l-73 -23q-101 -35 -101 -49q0 -7 22 -25l27 -21q115 -91 157 -177z" />
    <glyph glyph-name="afii52306" unicode="&#x6a9;" horiz-adv-x="359" arabic-form="medial" 
d="M211 253l36 -43q43 -50 68 -50h44v-60h-42q-25 0 -42 14.5t-58 65.5l-21 24q-19 22 -26 28q0 -63 -41 -97.5t-117 -34.5h-35v60h36q60 0 97.5 16.5t37.5 45.5q0 19 -10 31t-40 27l-12 -9l-39 30q-21 15 -21 28q0 58 27 91.5t93 55.5l97 37v-58l-73 -23q-101 -35 -101 -49
q0 -7 22 -25l27 -21q55 -44 93 -84z" />
    <glyph glyph-name="afii62967" unicode="&#x6af;" horiz-adv-x="652" arabic-form="final" 
d="M303 100h-143q-84 0 -118.5 20.5t-34.5 69.5q0 26 15 69l20 40l12 -7q-19 -39 -19 -69q0 -63 125 -63h146q60 0 97.5 16.5t37.5 45.5q0 19 -10 31t-40 27l-12 -9l-41 30q-21 17 -21 28q0 57 28 91t94 56l95 37v-58l-71 -23l-83 -33q-18 -11 -18 -16q0 -7 22 -25l27 -21
q55 -44 93 -84l36 -43q43 -50 68 -50h44v-60h-42q-25 0 -42 14.5t-58 65.5l-21 24q-19 22 -26 28q0 -63 -41.5 -97.5t-118.5 -34.5zM534 608v-60q-133 -48 -224 -105v38q17 17 87 57.5t137 69.5z" />
    <glyph glyph-name="afii62965" unicode="&#x6af;" horiz-adv-x="275" arabic-form="initial" 
d="M275 160v-60h-298v60h260q-25 37 -55.5 63t-83.5 57l-12 -9l-39 30q-21 15 -21 28q0 58 27 91.5t93 55.5l97 37v-58l-73 -23q-101 -35 -101 -49q0 -7 22 -25l27 -21q115 -91 157 -177zM243 614v-59q-159 -57 -224 -106v36q17 20 85.5 60t138.5 69z" />
    <glyph glyph-name="afii62966" unicode="&#x6af;" horiz-adv-x="359" arabic-form="medial" 
d="M211 253l36 -43q41 -50 68 -50h44v-60h-42q-25 0 -42 14.5t-58 65.5l-21 24q-19 22 -26 28q0 -63 -41 -97.5t-117 -34.5h-35v60h36q60 0 97.5 16.5t37.5 45.5q0 19 -10 31t-40 27l-12 -9l-39 30q-21 15 -21 28q0 58 27 91.5t93 55.5l97 37v-58l-73 -23q-101 -35 -101 -49
q0 -7 22 -25l27 -21q55 -44 93 -84zM243 614v-59q-159 -57 -224 -106v36q17 20 85.5 60t138.5 69z" />
    <glyph glyph-name="uniFB97" unicode="&#x6b3;" horiz-adv-x="652" arabic-form="final" 
d="M303 100h-143q-84 0 -118.5 20.5t-34.5 69.5q0 26 15 69l20 40l12 -7q-19 -39 -19 -69q0 -63 125 -63h146q60 0 97.5 16.5t37.5 45.5q0 19 -10 31t-40 27l-12 -9l-41 30q-21 17 -21 28q0 57 28 91t94 56l95 37v-58l-71 -23l-83 -33q-18 -11 -18 -16q0 -7 22 -25l27 -21
q55 -44 93 -84l36 -43q43 -50 68 -50h44v-60h-42q-25 0 -42 14.5t-58 65.5l-21 24q-19 22 -26 28q0 -63 -41.5 -97.5t-118.5 -34.5zM534 608v-60q-133 -48 -224 -105v38q17 17 87 57.5t137 69.5zM219 48l55 -28l-26 -50l-56 29zM234 -36l55 -29l-26 -52l-53 31z" />
    <glyph glyph-name="uniFB98" unicode="&#x6b3;" horiz-adv-x="275" arabic-form="initial" 
d="M275 160v-60h-298v60h260q-25 37 -55.5 63t-83.5 57l-12 -9l-39 30q-21 15 -21 28q0 58 27 91.5t93 55.5l97 37v-58l-73 -23q-101 -35 -101 -49q0 -7 22 -25l27 -21q115 -91 157 -177zM243 614v-59q-159 -57 -224 -106v36q17 20 85.5 60t138.5 69zM118 48l55 -28l-26 -50
l-56 29zM133 -36l55 -29l-26 -52l-53 31z" />
    <glyph glyph-name="uniFB99" unicode="&#x6b3;" horiz-adv-x="359" arabic-form="medial" 
d="M211 253l36 -43q41 -50 68 -50h44v-60h-42q-25 0 -42 14.5t-58 65.5l-21 24q-19 22 -26 28q0 -63 -41 -97.5t-117 -34.5h-35v60h36q60 0 97.5 16.5t37.5 45.5q0 19 -10 31t-40 27l-12 -9l-39 30q-21 15 -21 28q0 58 27 91.5t93 55.5l97 37v-58l-73 -23q-101 -35 -101 -49
q0 -7 22 -25l27 -21q55 -44 93 -84zM243 614v-59q-159 -57 -224 -106v36q17 20 85.5 60t138.5 69zM63 48l55 -28l-26 -50l-56 29zM78 -36l55 -29l-26 -52l-53 31z" />
    <glyph glyph-name="uniFB9B" unicode="&#x6b1;" horiz-adv-x="652" arabic-form="final" 
d="M303 100h-143q-84 0 -118.5 20.5t-34.5 69.5q0 26 15 69l20 40l12 -7q-19 -39 -19 -69q0 -63 125 -63h146q60 0 97.5 16.5t37.5 45.5q0 19 -10 31t-40 27l-12 -9l-41 30q-21 17 -21 28q0 57 28 91t94 56l95 37v-58l-71 -23l-83 -33q-18 -11 -18 -16q0 -7 22 -25l27 -21
q55 -44 93 -84l36 -43q43 -50 68 -50h44v-60h-42q-25 0 -42 14.5t-58 65.5l-21 24q-19 22 -26 28q0 -63 -41.5 -97.5t-118.5 -34.5zM534 608v-60q-133 -48 -224 -105v38q17 17 87 57.5t137 69.5zM407 623l49 -14l-17 -36l-52 15zM336 591l49 -15l-19 -35l-50 15z" />
    <glyph glyph-name="uniFB9C" unicode="&#x6b1;" horiz-adv-x="275" arabic-form="initial" 
d="M275 160v-60h-298v60h260q-25 37 -55.5 63t-83.5 57l-12 -9l-39 30q-21 15 -21 28q0 58 27 91.5t93 55.5l97 37v-58l-73 -23q-101 -35 -101 -49q0 -7 22 -25l27 -21q115 -91 157 -177zM243 614v-59q-159 -57 -224 -106v36q17 20 85.5 60t138.5 69zM106 623l49 -14
l-17 -36l-52 15zM35 591l49 -15l-19 -35l-50 15z" />
    <glyph glyph-name="uniFB9D" unicode="&#x6b1;" horiz-adv-x="359" arabic-form="medial" 
d="M211 253l36 -43q41 -50 68 -50h44v-60h-42q-25 0 -42 14.5t-58 65.5l-21 24q-19 22 -26 28q0 -63 -41 -97.5t-117 -34.5h-35v60h36q60 0 97.5 16.5t37.5 45.5q0 19 -10 31t-40 27l-12 -9l-39 30q-21 15 -21 28q0 58 27 91.5t93 55.5l97 37v-58l-73 -23q-101 -35 -101 -49
q0 -7 22 -25l27 -21q55 -44 93 -84zM243 614v-59q-159 -57 -224 -106v36q17 20 85.5 60t138.5 69zM106 623l49 -14l-17 -36l-52 15zM35 591l49 -15l-19 -35l-50 15z" />
    <glyph glyph-name="uniFB9F" unicode="&#x6ba;" horiz-adv-x="369" arabic-form="final" 
d="M369 160v-60q0 -79 -48 -114.5t-153 -35.5q-145 0 -145 105q0 41 11.5 77t41.5 99l14 -7q-40 -79 -40 -128q0 -42 30.5 -65t86.5 -23q75 0 125.5 29t50.5 74q0 69 -35 112l28 70q33 -56 33 -133z" />
    <glyph glyph-name="uniFBA1" unicode="&#x6bb;" horiz-adv-x="369" arabic-form="final" 
d="M369 160v-60q0 -79 -48 -114.5t-153 -35.5q-145 0 -145 105q0 41 11.5 77t41.5 99l14 -7q-40 -79 -40 -128q0 -42 30.5 -65t86.5 -23q75 0 125.5 29t50.5 74q0 69 -35 112l28 70q33 -56 33 -133zM306 377v-42h-205v29h24q53 0 53 44q0 37 -12 76l-6 27l-10 5q1 19 9 36
q2 -9 14 -13l16 -5q0 -8 -3 -31l-8 2q11 -40 11 -72q0 -9 -2 -27l-2 -15q50 31 78 31q43 0 43 -45zM279 376q0 17 -31 17q-18 0 -55 -17l-22 -12h71q37 0 37 12z" />
    <glyph glyph-name="uniFBA5" unicode="&#x6c0;" horiz-adv-x="261" arabic-form="final" 
d="M261 160v-60h-46q-42 0 -68 123q-21 -40 -58 -40q-91 0 -91 19q0 29 38 65t96 62q0 1 -2 8.5t-3 13.5t-1 7q0 19 26 49q4 -35 15 -80l9 -60q18 -107 39 -107h46zM142 253l-4 36q-52 -14 -76 -51q13 -7 42 -7q22 0 38 22zM146 457q0 -13 -33 -26l-63 -22q0 17 34 28
q-22 12 -22 26q0 11 20 30.5t32 19.5q18 0 18 -16q0 -7 -8 -21q-9 9 -24 9q-7 0 -14.5 -3t-7.5 -6q0 -6 16 -15.5t27 -9.5q12 0 25 6z" />
    <glyph glyph-name="uniFBA6" unicode="&#x6c1;" horiz-adv-x="197" arabic-form="isolated" 
d="M183 202q0 -60 -25 -85.5t-80 -25.5q-27 0 -43 11.5t-16 30.5q0 27 11 56l24 54l-6 1l21 57q74 -38 94 -55.5t20 -43.5zM154 175q0 17 -72 51q-21 -22 -24.5 -28t-3.5 -17q0 -17 10 -26.5t26 -9.5q18 0 41 10.5t23 19.5z" />
    <glyph glyph-name="uniFBA8" unicode="&#x6c1;" horiz-adv-x="170" arabic-form="initial" 
d="M170 183v-83h-193v60h169q0 38 -7 56t-35 48l28 56q27 -36 32.5 -57.5t5.5 -79.5zM121 -63q0 -12 -9 -20.5t-21 -8.5q-19 0 -30 16.5t-11 38.5q0 46 49 84l7 -13q-31 -30 -31 -48q0 -6 11.5 -11t23 -14t11.5 -24z" />
    <glyph glyph-name="uniFBA9" unicode="&#x6c1;" horiz-adv-x="224" arabic-form="medial" 
d="M224 160v-60h-14q-30 0 -49.5 -13.5t-24.5 -30t-8.5 -30t-7.5 -13.5q-12 0 -24 38.5t-12 74.5q0 14 2 30q-26 -56 -79 -56h-30v60h30q73 0 105 97l19 -7q-21 -62 -21 -112q0 -41 8 -60q0 36 26.5 59t65.5 23h14zM163 -113q0 -13 -9 -22.5t-22 -9.5q-16 0 -28 16.5
t-12 39.5q0 51 48 84l8 -11q-31 -30 -31 -49q0 -4 23 -16t23 -32z" />
    <glyph glyph-name="afii62828" unicode="&#x6be;" horiz-adv-x="261" arabic-form="final" 
d="M261 160v-60h-46q-42 0 -68 123q-21 -40 -58 -40q-91 0 -91 19q0 29 38 65t96 62q0 1 -2 8.5t-3 13.5t-1 7q0 19 26 49q4 -35 15 -80l9 -60q18 -107 39 -107h46zM142 253l-4 36q-52 -14 -76 -51q13 -7 42 -7q22 0 38 22z" />
    <glyph glyph-name="afii62827" unicode="&#x6be;" horiz-adv-x="275" arabic-form="medial" 
d="M275 160v-60h-123q24 -12 40 -34t16 -46q0 -63 -41 -63q-43 0 -80 33t-37 79v7l1 24h-74v60h86q19 57 51 99t55 42q11 0 19 -18t8 -40t-3 -31.5t-17.5 -22t-49.5 -29.5h149zM162 217q0 33 -14 33q-12 0 -24 -16.5t-39 -66.5q32 8 54.5 22t22.5 28zM176 26q0 22 -33 45.5
t-71 32.5q0 -42 22.5 -66.5t61.5 -24.5q20 0 20 13z" />
    <glyph glyph-name="uniFBAF" unicode="&#x6d2;" horiz-adv-x="568" arabic-form="final" 
d="M568 -89l-86 -57h-399q-35 0 -46 4.5t-14 16.5q0 92 72.5 159t175.5 96.5t217 29.5h80v-60h-83q-227 0 -393 -123q-41 -38 -41 -53q0 -9 33 -9h484v-4z" />
    <glyph glyph-name="uniFBB1" unicode="&#x6d3;" horiz-adv-x="568" arabic-form="final" 
d="M568 -89l-86 -57h-399q-35 0 -46 4.5t-14 16.5q0 92 72.5 159t175.5 96.5t217 29.5h80v-60h-83q-227 0 -393 -123q-41 -38 -41 -53q0 -9 33 -9h484v-4zM467 259q0 -13 -33 -26l-63 -22q0 17 34 28q-22 12 -22 26q0 11 20 30.5t32 19.5q18 0 18 -16q0 -7 -8 -21
q-9 9 -24 9q-7 0 -14.5 -3t-7.5 -6q0 -6 16 -15.5t27 -9.5q12 0 25 6z" />
    <glyph glyph-name="uniFBD4" unicode="&#x6ad;" horiz-adv-x="421" arabic-form="final" 
d="M295 309q0 -37 -24.5 -57.5t-69.5 -20.5q-42 0 -91 19l4 7q13 0 20 -3l34 -1h9q35 0 61.5 12t26.5 27q0 7 -6.5 12t-13.5 5q-12 0 -14 -1l-23 -1q-21 0 -21 20q0 29 30.5 69.5t61.5 50.5l-6 -46q-57 -14 -57 -43q0 -10 17 -10q10 0 12 1l19 1q17 1 24 -9t7 -32zM421 167
v-67h-253q-84 0 -118.5 20.5t-34.5 69.5q0 26 15 69l20 40l12 -7q-19 -44 -19 -69q0 -63 125 -63h218l-43 289l-16 8q0 53 15 84l6 -2q0 -19 24 -29l36 -14q0 -20 -11 -67l-17 6zM171 615l56 -29l-27 -49l-55 29zM237 553l56 -28l-27 -49l-56 29zM159 523l56 -28l-27 -52
l-55 31z" />
    <glyph glyph-name="uniFBD5" unicode="&#x6ad;" horiz-adv-x="275" arabic-form="initial" 
d="M275 160v-60h-298v60h260q-25 37 -55.5 63t-83.5 57l-12 -9l-39 30q-21 15 -21 28q0 58 27 91.5t93 55.5l97 37v-58l-73 -23q-101 -35 -101 -49q0 -7 22 -25l27 -21q115 -91 157 -177zM68 596l44 -13l-20 -31l-43 11zM127 580l46 -13l-20 -33l-46 13zM54 549l44 -11
l-20 -33l-44 12z" />
    <glyph glyph-name="uniFBD6" unicode="&#x6ad;" horiz-adv-x="275" arabic-form="medial" 
d="M275 160v-60h-298v60h260q-25 37 -55.5 63t-83.5 57l-12 -9l-39 30q-21 15 -21 28q0 58 27 91.5t93 55.5l97 37v-58l-73 -23q-101 -35 -101 -49q0 -7 22 -25l27 -21q115 -91 157 -177zM68 596l44 -13l-20 -31l-43 11zM127 580l46 -13l-20 -33l-46 13zM54 549l44 -11
l-20 -33l-44 12z" />
    <glyph glyph-name="uniFBD8" unicode="&#x6c7;" horiz-adv-x="302" arabic-form="final" 
d="M302 160v-40q0 -60 -46 -117t-102 -57q-40 0 -138 34l6 12q63 -14 78 -14q50 0 87 23.5t93 97.5q-96 0 -96 70q0 38 20 68.5t46 30.5q52 0 52 -108zM281 159q-14 56 -41 56q-8 0 -15.5 -7.5t-7.5 -16.5q0 -32 64 -32zM292 375q0 -3 -1 -12t-1 -13l-31 18l-22 -26
q-21 -26 -43 -26h-23q1 1 16.5 10.5t25.5 17.5l32 32q-23 12 -23 34t13 39.5t29 17.5q9 0 16 -10t7 -24q0 -10 -10 -40l10 -8q5 -3 5 -10zM263 404l2 9q0 9 -6 17t-11 8q-7 0 -7 -7q0 -9 8 -17z" />
    <glyph glyph-name="uniFBDA" unicode="&#x6c6;" horiz-adv-x="302" arabic-form="final" 
d="M302 160v-40q0 -60 -46 -117t-102 -57q-40 0 -138 34l6 12q63 -14 78 -14q50 0 87 23.5t93 97.5q-96 0 -96 70q0 38 20 68.5t46 30.5q52 0 52 -108zM281 159q-14 56 -41 56q-8 0 -15.5 -7.5t-7.5 -16.5q0 -32 64 -32zM277 411h29l-47 -81h-18l-47 81h29l27 -49z" />
    <glyph glyph-name="uniFBDC" unicode="&#x6c8;" horiz-adv-x="302" arabic-form="final" 
d="M302 160v-40q0 -60 -46 -117t-102 -57q-40 0 -138 34l6 12q63 -14 78 -14q50 0 87 23.5t93 97.5q-96 0 -96 70q0 38 20 68.5t46 30.5q52 0 52 -108zM281 159q-14 56 -41 56q-8 0 -15.5 -7.5t-7.5 -16.5q0 -32 64 -32zM248 359q0 -21 -15 -44l-2 1q1 8 1 19q0 34 -16 154
q2 6 16 30q16 -103 16 -160z" />
    <glyph glyph-name="uniFBDF" unicode="&#x6cb;" horiz-adv-x="302" arabic-form="final" 
d="M302 160v-40q0 -60 -46 -117t-102 -57q-40 0 -138 34l6 12q63 -14 78 -14q50 0 87 23.5t93 97.5q-96 0 -96 70q0 38 20 68.5t46 30.5q52 0 52 -108zM281 159q-14 56 -41 56q-8 0 -15.5 -7.5t-7.5 -16.5q0 -32 64 -32zM185 497l56 -29l-27 -49l-55 29zM251 435l56 -28
l-27 -49l-56 29zM173 405l56 -28l-27 -52l-55 31z" />
    <glyph glyph-name="uniFBE1" unicode="&#x6c5;" horiz-adv-x="302" arabic-form="final" 
d="M302 160v-40q0 -60 -46 -117t-102 -57q-48 0 -92 19l-46 15l6 12l41 -8q18 -6 37 -6q71 0 133 65l5 5q-6 -1 -15 -1q-17 0 -43 9l-46 12q-2 0 -16 -6l-5 3q17 27 36 27q81 -20 90 -20q14 0 21 3l20 24q-96 0 -96 70q0 38 20 68.5t46 30.5q52 0 52 -108zM281 159
q-14 56 -41 56q-23 0 -23 -24q0 -32 64 -32z" />
    <glyph glyph-name="uniFBE3" unicode="&#x6c9;" horiz-adv-x="302" arabic-form="final" 
d="M302 160v-40q0 -60 -46 -117t-102 -57q-40 0 -138 34l6 12q63 -14 78 -14q50 0 87 23.5t93 97.5q-96 0 -96 70q0 38 20 68.5t46 30.5q52 0 52 -108zM281 159q-14 56 -41 56q-8 0 -15.5 -7.5t-7.5 -16.5q0 -32 64 -32zM259 411l47 -81h-29l-27 49l-27 -49h-29l47 81h18z
" />
    <glyph glyph-name="uniFBE5" unicode="&#x6d0;" horiz-adv-x="412" arabic-form="final" 
d="M412 160v-60h-61q-105 0 -105 -14q0 -9 31 -9t61.5 -4t30.5 -25q0 -65 -45.5 -95t-148.5 -30q-75 0 -118.5 26.5t-43.5 73.5q0 38 9.5 62.5t53.5 90.5l14 -7l-27 -43q-20 -40 -20 -62q0 -41 42 -63t118 -22q54 0 93 9.5t39 24.5q0 10 -22 10l-55 5q-41 0 -41 22
q0 53 39 81.5t95 28.5h61zM182 -81l32 -8l-12 -23l-31 8zM192 -117l31 -8l-10 -23l-33 8z" />
    <glyph glyph-name="uniFBE6" unicode="&#x6d0;" horiz-adv-x="170" arabic-form="initial" 
d="M170 183v-83h-193v60h169q0 38 -7 56t-35 48l28 56q27 -36 32.5 -57.5t5.5 -79.5zM63 48l55 -28l-26 -50l-56 29zM78 -36l55 -29l-26 -52l-53 31z" />
    <glyph glyph-name="uniFBE7" unicode="&#x6d0;" horiz-adv-x="170" arabic-form="medial" 
d="M170 183v-83h-193v60h169q0 38 -7 56t-35 48l28 56q27 -36 32.5 -57.5t5.5 -79.5zM63 48l55 -28l-26 -50l-56 29zM78 -36l55 -29l-26 -52l-53 31z" />
    <glyph glyph-name="afii52364" unicode="&#x6cc;" horiz-adv-x="412" arabic-form="final" 
d="M412 160v-60h-61q-105 0 -105 -14q0 -9 31 -9t61.5 -4t30.5 -25q0 -65 -45.5 -95t-148.5 -30q-75 0 -118.5 26.5t-43.5 73.5q0 38 9.5 62.5t53.5 90.5l14 -7l-27 -43q-20 -40 -20 -62q0 -41 42 -63t118 -22q54 0 93 9.5t39 24.5q0 10 -22 10l-55 5q-41 0 -41 22
q0 53 39 81.5t95 28.5h61z" />
    <glyph glyph-name="afii62831" unicode="&#x6cc;" horiz-adv-x="170" arabic-form="initial" 
d="M170 183v-83h-193v60h169q0 38 -7 56t-35 48l28 56q27 -36 32.5 -57.5t5.5 -79.5zM113 61l56 -28l-27 -49l-56 29zM35 29l56 -28l-27 -50l-55 29z" />
    <glyph glyph-name="afii62832" unicode="&#x6cc;" horiz-adv-x="170" arabic-form="medial" 
d="M170 183v-83h-193v60h169q0 38 -7 56t-35 48l28 56q27 -36 32.5 -57.5t5.5 -79.5zM113 61l56 -28l-27 -49l-56 29zM35 29l56 -28l-27 -50l-55 29z" />
    <glyph glyph-name="afii62882" unicode="&#xfc5e;" horiz-adv-x="159" arabic-form="isolated" 
d="M156 621q-2 -19 -14 -38q12 -7 12 -15q0 -5 -2 -29l-31 22q-32 -41 -88 -41l11 20q7 11 7 22q0 21 -11 21q-10 0 -14 -8l-10 -15q3 31 9.5 42.5t18.5 11.5q26 0 26 -38q0 -11 -6 -29q23 8 47 22q-21 21 -21 33q0 19 14 34t31 17q21 -1 21 -32zM148 504q0 -26 -10 -43.5
t-26 -17.5q-8 0 -23 10q-19 -31 -35 -31q-31 0 -31 38q0 10 11 37l7 2q0 -1 -0.5 -8.5t-0.5 -9.5q0 -20 11 -20q23 0 34 55l7 1q3 -21 6.5 -26.5t12.5 -5.5q11 0 19 14.5t8 32.5l7 1q3 -21 3 -29zM134 610q0 9 -4 15t-9 6q-9 0 -9 -9q0 -7 6 -13l13 -12q3 7 3 13z" />
    <glyph glyph-name="afii62883" unicode="&#xfc5f;" horiz-adv-x="148" arabic-form="isolated" 
d="M148 603q0 -26 -10 -42.5t-26 -16.5q-11 0 -23 8q-17 -28 -35 -28q-31 0 -31 35q0 20 11 37l7 4q0 -2 -0.5 -9.5t-0.5 -10.5q0 -20 11 -20q12 0 19.5 12t14.5 42l7 2q3 -20 6.5 -26.5t12.5 -6.5q11 0 19 15t8 33l7 1q3 -27 3 -29zM142 538q0 -23 -40 -41q-15 -7 -75 -30
q0 9 3.5 15.5t14.5 13t21 11t34 14t42 17.5zM41 453l101 43q0 -18 -16 -33l-99 -41q0 17 14 31z" />
    <glyph glyph-name="afii62884" unicode="&#xfc60;" horiz-adv-x="148" arabic-form="isolated" 
d="M42 546l100 42q0 -18 -17 -30l-98 -40q0 13 15 28zM148 504q0 -26 -10 -43.5t-26 -17.5q-8 0 -23 10q-19 -31 -35 -31q-31 0 -31 38q0 18 11 37l7 2q0 -1 -0.5 -8.5t-0.5 -9.5q0 -20 11 -20q23 0 34 55l7 1q3 -21 6.5 -26.5t12.5 -5.5q11 0 19 14.5t8 32.5l7 1
q3 -21 3 -29z" />
    <glyph glyph-name="afii62885" unicode="&#xfc61;" horiz-adv-x="148" arabic-form="isolated" 
d="M148 541q-8 0 -18.5 3t-22.5 4q-24 -21 -37 -28t-29 -7q-5 0 -19 7q24 9 36 18l38 17l-13 13q-6 7 -6 15q0 16 13 31t27 15q11 0 18 -7.5t7 -17.5q0 -3 -2 -15l-8 -14q11 -7 13.5 -12.5t2.5 -21.5zM148 505q0 -26 -10 -42.5t-26 -16.5q-11 0 -23 8q-16 -29 -35 -29
q-31 0 -31 36q0 17 11 36l7 2q0 -1 -0.5 -7.5t-0.5 -9.5q0 -20 11 -20q22 0 34 54l7 2q3 -20 7 -26.5t12 -6.5q11 0 19 14.5t8 32.5l7 2q3 -27 3 -29zM120 594q0 7 -5 14t-12 7q-5 0 -5 -8q0 -16 19 -24q3 9 3 11z" />
    <glyph glyph-name="afii62886" unicode="&#xfc62;" horiz-adv-x="148" arabic-form="isolated" 
d="M148 568q0 -28 -10 -43.5t-26 -15.5q-11 0 -23 8q-17 -29 -35 -29q-31 0 -31 36q0 17 11 36l7 2q0 -1 -0.5 -8.5t-0.5 -9.5q0 -19 11 -19q13 0 19.5 11t14.5 43l7 1q3 -19 7 -25.5t12 -6.5q11 0 19 14.5t8 32.5l7 2q3 -27 3 -29zM142 495q0 -17 -16 -32l-99 -41
q0 10 3.5 16.5t15 13.5t21 11.5t34 14t41.5 17.5z" />
    <glyph glyph-name="afii64184" unicode="&#xfdf2;" horiz-adv-x="432" arabic-form="isolated" 
d="M261 464l-7 -2q-12 31 -49 61q5 14 17 14q13 0 18 -13l13 -25q6 -11 8 -35zM323 449q0 -25 -9 -43.5t-22 -18.5q-11 0 -31 10q-1 -10 -12.5 -20.5t-19.5 -10.5q-31 0 -31 35q0 4 2.5 14.5t2.5 11.5l9 5q0 -17 4.5 -22.5t16.5 -5.5q15 0 26 42l7 2q4 -15 8 -19t15 -4
q12 0 18 14l6 22l8 2q2 -6 2 -14zM422 162q0 -30 -11 -52l-5 -10q-68 0 -103 41q-25 -41 -71 -41q-23 0 -43.5 13.5t-27.5 33.5q-32 -47 -70 -47q-37 0 -60.5 6t-23.5 14q0 28 38.5 64t95.5 63q0 2 -3 13t-3 15q0 19 26 52q1 -9 3.5 -32.5t4.5 -38.5t7 -36t11.5 -33.5
t18 -21.5t26.5 -9q16 0 24.5 5.5t22.5 25.5l-21 92q-2 15 -4 17l-2 20q0 24 26 50q1 -10 3.5 -22t6.5 -32.5t8 -40.5l12 -60q13 -55 54 -55q20 0 22 31l-20 92l-2 17l-4 20q0 24 26 50l29 -140q9 -40 9 -64zM154 170l-7 39q-56 -19 -76 -53q19 -7 43 -7q17 0 40 21z" />
    <glyph glyph-name="afii52399" unicode="&#x621;" horiz-adv-x="288" arabic-form="isolated" 
d="M254 183l-16 -56q-97 -22 -155 -77l-12 6q9 29 27 50l-40 22q-16 11 -16 26q0 44 40 85t65 41q26 0 43 -15l18 -19l-19 -44l-14 9q-18 14 -35 14t-34 -9.5t-17 -20.5q0 -28 70 -48q42 21 95 36z" />
    <glyph glyph-name="afii62753" unicode="&#x622;" horiz-adv-x="161" arabic-form="final" 
d="M161 160v-60h-48q-32 0 -45.5 34.5t-19.5 112.5l-6 81q-1 44 -6.5 70t-10.5 34t-18 21l42 65q11 -36 19 -98v-20t1 -40t2 -50t4.5 -53.5t8 -48t12 -35.5t17.5 -13h48zM121 569l6 -3q-23 -26 -50 -26q-20 0 -33 6l-36 12q-2 0 -16 -6l-5 3q16 24 34 24l43 -14q14 -3 22 -3
q12 0 35 7z" />
    <glyph glyph-name="afii62754" unicode="&#x623;" horiz-adv-x="161" arabic-form="final" 
d="M100 560q0 -7 -6 -12.5t-25 -13.5l-63 -22q0 18 34 28q-24 13 -24 26q0 11 20 30.5t34 19.5q16 0 16 -16q0 -12 -8 -21q-9 9 -22 9q-7 0 -14.5 -3t-7.5 -6q0 -6 16 -15.5t27 -9.5q12 0 23 6zM161 160v-60h-48q-32 0 -45.5 34.5t-19.5 112.5l-6 81q-1 44 -6.5 70t-10.5 34
t-18 21l42 65q11 -36 19 -98v-20t1 -40t2 -50t4.5 -53.5t8 -48t12 -35.5t17.5 -13h48z" />
    <glyph glyph-name="afii62755" unicode="&#x624;" horiz-adv-x="302" arabic-form="final" 
d="M302 160v-40q0 -60 -46 -117t-102 -57q-40 0 -138 34l6 12q63 -14 78 -14q50 0 87 23.5t93 97.5q-96 0 -96 70q0 38 20 68.5t46 30.5q52 0 52 -108zM281 159q-14 56 -41 56q-8 0 -15.5 -7.5t-7.5 -16.5q0 -32 64 -32zM219 334q0 -16 -30 -26l-64 -22q0 17 35 28l-18 9
q-7 12 -7 14q0 11 21 32t33 21q16 0 16 -18q0 -11 -7 -21q-11 11 -23 11q-7 0 -14.5 -4t-7.5 -8q0 -5 16 -13.5t27 -8.5q12 0 23 6z" />
    <glyph glyph-name="afii62756" unicode="&#x625;" horiz-adv-x="161" arabic-form="final" 
d="M161 160v-60h-48q-32 0 -45.5 34.5t-19.5 112.5l-6 81q-1 44 -6.5 70t-10.5 34t-18 21l42 65q11 -36 19 -98v-20t1 -40t2 -50t4.5 -53.5t8 -48t12 -35.5t17.5 -13h48zM104 -19q0 -13 -32 -24l-64 -22q0 13 35 28l-16 9q-7 7 -7 14q0 11 20 31t32 20q18 0 18 -16
q0 -5 -7 -21q-9 9 -25 9q-22 0 -22 -10q0 -5 16 -13.5t27 -8.5q12 0 25 4z" />
    <glyph glyph-name="afii62759" unicode="&#x626;" horiz-adv-x="412" arabic-form="final" 
d="M412 160v-60h-61q-105 0 -105 -14q0 -9 31 -9t61.5 -4t30.5 -25q0 -65 -45.5 -95t-148.5 -30q-75 0 -118.5 26.5t-43.5 73.5q0 38 9.5 62.5t53.5 90.5l14 -7l-27 -43q-20 -40 -20 -62q0 -41 42 -63t118 -22q54 0 93 9.5t39 24.5q0 10 -22 10l-55 5q-41 0 -41 22
q0 53 39 81.5t95 28.5h61zM120 288q0 -12 -31 -24l-63 -24q0 16 32 28q-23 16 -23 25q0 12 21.5 31.5t33.5 19.5q16 0 16 -16q0 -12 -8 -21q-9 9 -22 9q-8 0 -15 -3.5t-7 -6.5q0 -5 16 -14.5t27 -9.5q10 0 23 6z" />
    <glyph glyph-name="afii62757" unicode="&#x626;" horiz-adv-x="170" arabic-form="initial" 
d="M170 183v-83h-193v60h169q0 38 -7 56t-35 48l28 56q27 -36 32.5 -57.5t5.5 -79.5zM134 412q0 -2 -0.5 -3.5t-0.5 -3t-1.5 -2.5t-2 -2t-2.5 -2.5t-3.5 -2t-4.5 -2t-4.5 -2.5t-5.5 -3l-6 -3l-66 -21q0 16 35 28q-23 10 -23 25q0 11 20 30.5t34 19.5q16 0 16 -18
q0 -8 -7 -21q-11 11 -23 11q-21 0 -21 -11q0 -6 15 -14t27 -8t24 5z" />
    <glyph glyph-name="afii62758" unicode="&#x626;" horiz-adv-x="170" arabic-form="medial" 
d="M170 183v-83h-193v60h169q0 38 -7 56t-35 48l28 56q27 -36 32.5 -57.5t5.5 -79.5zM134 412q0 -2 -0.5 -3.5t-0.5 -3t-1.5 -2.5t-2 -2t-2.5 -2.5t-3.5 -2t-4.5 -2t-4.5 -2.5t-5.5 -3l-6 -3l-66 -21q0 16 35 28q-23 10 -23 25q0 11 20 30.5t34 19.5q16 0 16 -18
q0 -8 -7 -21q-11 11 -23 11q-21 0 -21 -11q0 -6 15 -14t27 -8t24 5z" />
    <glyph glyph-name="afii62760" unicode="&#x627;" horiz-adv-x="161" arabic-form="final" 
d="M161 160v-60h-48q-32 0 -45.5 34.5t-19.5 112.5l-6 81q-1 44 -6.5 70t-10.5 34t-18 21l42 65q11 -36 19 -98v-20t1 -40t2 -50t4.5 -53.5t8 -48t12 -35.5t17.5 -13h48z" />
    <glyph glyph-name="afii62763" unicode="&#x628;" horiz-adv-x="499" arabic-form="final" 
d="M499 194v-94h-325q-73 0 -113.5 28.5t-40.5 83.5q0 42 14 66l24 45l11 -7l-14 -30q-11 -24 -11 -43q0 -39 37.5 -61t101.5 -22h288v9q0 73 -39 104l25 55l19 -22q23 -41 23 -112zM246 47l57 -31l-25 -49l-56 28z" />
    <glyph glyph-name="afii62761" unicode="&#x628;" horiz-adv-x="170" arabic-form="initial" 
d="M170 183v-83h-193v60h169q0 38 -7 56t-35 48l28 56q27 -36 32.5 -57.5t5.5 -79.5zM79 47l56 -31l-25 -49l-55 28z" />
    <glyph glyph-name="afii62762" unicode="&#x628;" horiz-adv-x="170" arabic-form="medial" 
d="M170 183v-83h-193v60h169q0 38 -7 56t-35 48l28 56q27 -36 32.5 -57.5t5.5 -79.5zM79 47l56 -31l-25 -49l-55 28z" />
    <glyph glyph-name="afii62764" unicode="&#x629;" horiz-adv-x="261" arabic-form="final" 
d="M119 538l57 -29l-27 -49l-56 29zM42 506l56 -29l-27 -49l-56 28zM261 160v-60h-46q-42 0 -68 123q-21 -40 -58 -40q-91 0 -91 19q0 29 38 65t96 62q0 1 -2 8.5t-3 13.5t-1 7q0 19 26 49q4 -35 15 -80l9 -60q18 -107 39 -107h46zM142 253l-4 36q-52 -14 -76 -51
q13 -7 42 -7q22 0 38 22z" />
    <glyph glyph-name="afii62767" unicode="&#x62a;" horiz-adv-x="499" arabic-form="final" 
d="M282 440l56 -29l-25 -49l-56 29zM204 408l56 -29l-27 -49l-53 28zM499 194v-94h-325q-73 0 -113.5 28.5t-40.5 83.5q0 42 14 66l24 45l11 -7l-14 -30q-11 -24 -11 -43q0 -39 37.5 -61t101.5 -22h288v9q0 73 -39 104l25 55l19 -22q23 -41 23 -112z" />
    <glyph glyph-name="afii62765" unicode="&#x62a;" horiz-adv-x="170" arabic-form="initial" 
d="M113 467l56 -28l-27 -49l-56 29zM35 435l56 -28l-27 -50l-55 29zM170 183v-83h-193v60h169q0 38 -7 56t-35 48l28 56q27 -36 32.5 -57.5t5.5 -79.5z" />
    <glyph glyph-name="afii62766" unicode="&#x62a;" horiz-adv-x="170" arabic-form="medial" 
d="M113 467l56 -28l-27 -49l-56 29zM35 435l56 -28l-27 -50l-55 29zM170 183v-83h-193v60h169q0 38 -7 56t-35 48l28 56q27 -36 32.5 -57.5t5.5 -79.5z" />
    <glyph glyph-name="afii62770" unicode="&#x62b;" horiz-adv-x="499" arabic-form="final" 
d="M216 502l56 -31l-27 -50l-55 29zM282 440l56 -29l-25 -49l-56 29zM204 408l56 -29l-27 -49l-53 28zM499 194v-94h-325q-73 0 -113.5 28.5t-40.5 83.5q0 42 14 66l24 45l11 -7l-14 -30q-11 -24 -11 -43q0 -39 37.5 -61t101.5 -22h288v9q0 73 -39 104l25 55l19 -22
q23 -41 23 -112z" />
    <glyph glyph-name="afii62768" unicode="&#x62b;" horiz-adv-x="170" arabic-form="initial" 
d="M47 527l56 -29l-27 -49l-55 29zM113 467l56 -28l-27 -49l-56 29zM35 435l56 -28l-27 -50l-55 29zM170 183v-83h-193v60h169q0 38 -7 56t-35 48l28 56q27 -36 32.5 -57.5t5.5 -79.5z" />
    <glyph glyph-name="afii62769" unicode="&#x62b;" horiz-adv-x="170" arabic-form="medial" 
d="M47 527l56 -29l-27 -49l-55 29zM113 467l56 -28l-27 -49l-56 29zM35 435l56 -28l-27 -50l-55 29zM170 183v-83h-193v60h169q0 38 -7 56t-35 48l28 56q27 -36 32.5 -57.5t5.5 -79.5z" />
    <glyph glyph-name="afii62773" unicode="&#x62c;" horiz-adv-x="369" arabic-form="final" 
d="M369 160v-60h-48q-41 0 -58.5 15.5t-17.5 51.5l2 34l5 18q-111 -36 -160.5 -73t-49.5 -95q0 -69 66.5 -105t186.5 -36h63l4 -3l-77 -55h-21q-128 0 -186.5 43t-58.5 133q0 58 29 103q20 30 37 42t98 58q-16 5 -56 5l-56 -4l-44 -9q13 43 38.5 59.5t74.5 16.5
q23 0 72.5 -6.5t65.5 -6.5q39 0 67 6l-14 -60l-31 -3q-10 -4 -32 -6l-1 -20v-7q0 -36 54 -36h48zM184 92l56 -29l-25 -49l-55 28z" />
    <glyph glyph-name="afii62771" unicode="&#x62c;" horiz-adv-x="371" arabic-form="initial" 
d="M371 160v-60h-394v60h277q-61 45 -95 61.5t-74 16.5q-22 0 -35 -1q28 63 84 63q33 0 83 -35q3 -2 25 -21t42.5 -36.5t40.5 -32.5t25 -15h21zM142 56l55 -29l-27 -50l-53 29z" />
    <glyph glyph-name="afii62772" unicode="&#x62c;" horiz-adv-x="371" arabic-form="medial" 
d="M371 160v-60h-394v60h277q-61 45 -95 61.5t-74 16.5q-22 0 -35 -1q28 63 84 63q33 0 83 -35q3 -2 25 -21t42.5 -36.5t40.5 -32.5t25 -15h21zM142 56l55 -29l-27 -50l-53 29z" />
    <glyph glyph-name="afii62776" unicode="&#x62d;" horiz-adv-x="369" arabic-form="final" 
d="M369 160v-60h-48q-41 0 -58.5 15.5t-17.5 51.5l2 34l5 18q-111 -36 -160.5 -73t-49.5 -95q0 -69 66.5 -105t186.5 -36h63l4 -3l-77 -55h-21q-128 0 -186.5 43t-58.5 133q0 58 29 103q20 30 37 42t98 58q-16 5 -56 5l-56 -4l-44 -9q13 43 38.5 59.5t74.5 16.5
q23 0 72.5 -6.5t65.5 -6.5q39 0 67 6l-14 -60l-31 -3q-10 -4 -32 -6l-1 -20v-7q0 -36 54 -36h48z" />
    <glyph glyph-name="afii62774" unicode="&#x62d;" horiz-adv-x="371" arabic-form="initial" 
d="M371 160v-60h-394v60h277q-61 45 -95 61.5t-74 16.5q-22 0 -35 -1q28 63 84 63q33 0 83 -35q3 -2 25 -21t42.5 -36.5t40.5 -32.5t25 -15h21z" />
    <glyph glyph-name="afii62775" unicode="&#x62d;" horiz-adv-x="371" arabic-form="medial" 
d="M371 160v-60h-394v60h277q-61 45 -95 61.5t-74 16.5q-22 0 -35 -1q28 63 84 63q33 0 83 -35q3 -2 25 -21t42.5 -36.5t40.5 -32.5t25 -15h21z" />
    <glyph glyph-name="afii62779" unicode="&#x62e;" horiz-adv-x="369" arabic-form="final" 
d="M176 448l56 -29l-27 -50l-53 29zM369 160v-60h-48q-41 0 -58.5 15.5t-17.5 51.5l2 34l5 18q-111 -36 -160.5 -73t-49.5 -95q0 -69 66.5 -105t186.5 -36h63l4 -3l-77 -55h-21q-128 0 -186.5 43t-58.5 133q0 58 29 103q20 30 37 42t98 58q-16 5 -56 5l-56 -4l-44 -9
q13 43 38.5 59.5t74.5 16.5q23 0 72.5 -6.5t65.5 -6.5q39 0 67 6l-14 -60l-31 -3q-10 -4 -32 -6l-1 -20v-7q0 -36 54 -36h48z" />
    <glyph glyph-name="afii62777" unicode="&#x62e;" horiz-adv-x="371" arabic-form="initial" 
d="M152 448l56 -29l-27 -50l-55 29zM371 160v-60h-394v60h277q-61 45 -95 61.5t-74 16.5q-22 0 -35 -1q28 63 84 63q33 0 83 -35q3 -2 25 -21t42.5 -36.5t40.5 -32.5t25 -15h21z" />
    <glyph glyph-name="afii62778" unicode="&#x62e;" horiz-adv-x="371" arabic-form="medial" 
d="M152 448l56 -29l-27 -50l-55 29zM371 160v-60h-394v60h277q-61 45 -95 61.5t-74 16.5q-22 0 -35 -1q28 63 84 63q33 0 83 -35q3 -2 25 -21t42.5 -36.5t40.5 -32.5t25 -15h21z" />
    <glyph glyph-name="afii62780" unicode="&#x62f;" horiz-adv-x="237" arabic-form="final" 
d="M237 160v-60h-154q-20 0 -35 11.5t-15 27.5q0 26 7 45h7q5 -24 36 -24h133q0 132 -89 161l6 65q54 -27 79 -81.5t25 -144.5z" />
    <glyph glyph-name="afii62781" unicode="&#x630;" horiz-adv-x="237" arabic-form="final" 
d="M89 532l57 -29l-27 -50l-55 29zM237 160v-60h-154q-20 0 -35 11.5t-15 27.5q0 26 7 45h7q5 -24 36 -24h133q0 132 -89 161l6 65q54 -27 79 -81.5t25 -144.5z" />
    <glyph glyph-name="afii62782" unicode="&#x631;" horiz-adv-x="342" arabic-form="final" 
d="M342 183v-83q0 -52 -61 -107.5t-106 -55.5q-30 0 -50 6l-50 16q-9 3 -25.5 10t-23.5 9l4 14q72 -14 91 -14q63 0 129.5 55.5t66.5 107.5q0 45 -51 106l20 54q31 -31 43.5 -57t12.5 -61z" />
    <glyph glyph-name="afii62783" unicode="&#x632;" horiz-adv-x="342" arabic-form="final" 
d="M236 448l56 -29l-27 -50l-55 29zM342 183v-83q0 -52 -61 -107.5t-106 -55.5q-30 0 -50 6l-50 16q-9 3 -25.5 10t-23.5 9l4 14q72 -14 91 -14q63 0 129.5 55.5t66.5 107.5q0 45 -51 106l20 54q31 -31 43.5 -57t12.5 -61z" />
    <glyph glyph-name="afii62786" unicode="&#x633;" horiz-adv-x="575" arabic-form="final" 
d="M575 182v-82h-28q-36 0 -66 24q-19 -15 -32.5 -19.5t-41.5 -4.5h-42q0 -70 -55.5 -110t-143.5 -40q-145 0 -145 105q0 62 27 119l27 57l11 -7q-38 -80 -38 -128q0 -42 31 -65t87 -23q76 0 127.5 29t51.5 74q0 61 -39 112l29 70q18 -31 24 -58t6 -75h42q31 0 45.5 8
t14.5 28q0 10 -6 42l14 21l6 -34q5 -34 18.5 -49t40.5 -15q15 0 15 16q0 34 -30 67l22 36q19 -29 23.5 -46t4.5 -52z" />
    <glyph glyph-name="afii62784" unicode="&#x633;" horiz-adv-x="371" arabic-form="initial" 
d="M371 182v-82h-26q-43 0 -66 24q-19 -15 -33.5 -19.5t-42.5 -4.5h-22q-30 0 -64 21q-16 -12 -30.5 -16.5t-44.5 -4.5h-65v60h65q35 0 48 8t13 28q0 10 -6 42l14 21q18 -57 33 -78t44 -21h23q26 0 38 8t12 28q0 27 -3 42l14 21l7 -33q7 -36 20 -50.5t35 -14.5q18 0 18 20
q0 23 -14 41l-16 22l22 36q17 -26 22 -44.5t5 -53.5z" />
    <glyph glyph-name="afii62785" unicode="&#x633;" horiz-adv-x="371" arabic-form="medial" 
d="M371 182v-82h-26q-43 0 -66 24q-19 -15 -33.5 -19.5t-42.5 -4.5h-22q-30 0 -64 21q-16 -12 -30.5 -16.5t-44.5 -4.5h-65v60h65q35 0 48 8t13 28q0 10 -6 42l14 21q18 -57 33 -78t44 -21h23q26 0 38 8t12 28q0 27 -3 42l14 21l7 -33q7 -36 20 -50.5t35 -14.5q18 0 18 20
q0 23 -14 41l-16 22l22 36q17 -26 22 -44.5t5 -53.5z" />
    <glyph glyph-name="afii62789" unicode="&#x634;" horiz-adv-x="575" arabic-form="final" 
d="M425 502l56 -31l-27 -50l-55 29zM491 440l56 -29l-27 -49l-53 29zM413 408l56 -29l-26 -49l-56 28zM575 182v-82h-28q-36 0 -66 24q-19 -15 -32.5 -19.5t-41.5 -4.5h-42q0 -70 -55.5 -110t-143.5 -40q-145 0 -145 105q0 62 27 119l27 57l11 -7q-38 -80 -38 -128
q0 -42 31 -65t87 -23q76 0 127.5 29t51.5 74q0 61 -39 112l29 70q18 -31 24 -58t6 -75h42q31 0 45.5 8t14.5 28q0 10 -6 42l14 21l6 -34q5 -34 18.5 -49t40.5 -15q15 0 15 16q0 34 -30 67l22 36q19 -29 23.5 -46t4.5 -52z" />
    <glyph glyph-name="afii62787" unicode="&#x634;" horiz-adv-x="371" arabic-form="initial" 
d="M218 502l56 -31l-27 -50l-53 29zM285 440l57 -29l-27 -49l-56 29zM205 408l56 -29l-24 -49l-56 28zM371 182v-82h-26q-43 0 -66 24q-19 -15 -33.5 -19.5t-42.5 -4.5h-22q-30 0 -64 21q-16 -12 -30.5 -16.5t-44.5 -4.5h-65v60h65q35 0 48 8t13 28q0 10 -6 42l14 21
q18 -57 33 -78t44 -21h23q26 0 38 8t12 28q0 27 -3 42l14 21l7 -33q7 -36 20 -50.5t35 -14.5q18 0 18 20q0 23 -14 41l-16 22l22 36q17 -26 22 -44.5t5 -53.5z" />
    <glyph glyph-name="afii62788" unicode="&#x634;" horiz-adv-x="371" arabic-form="medial" 
d="M218 502l56 -31l-27 -50l-53 29zM285 440l57 -29l-27 -49l-56 29zM205 408l56 -29l-24 -49l-56 28zM371 182v-82h-26q-43 0 -66 24q-19 -15 -33.5 -19.5t-42.5 -4.5h-22q-30 0 -64 21q-16 -12 -30.5 -16.5t-44.5 -4.5h-65v60h65q35 0 48 8t13 28q0 10 -6 42l14 21
q18 -57 33 -78t44 -21h23q26 0 38 8t12 28q0 27 -3 42l14 21l7 -33q7 -36 20 -50.5t35 -14.5q18 0 18 20q0 23 -14 41l-16 22l22 36q17 -26 22 -44.5t5 -53.5z" />
    <glyph glyph-name="afii62792" unicode="&#x635;" horiz-adv-x="769" arabic-form="final" 
d="M769 187v-87h-406q-13 -80 -59.5 -115t-137.5 -35q-145 0 -145 105q0 62 27 119l27 57l11 -7q-38 -80 -38 -128q0 -42 31 -65t87 -23q76 0 127.5 29t51.5 74q0 61 -39 112l29 70q18 -31 24 -58t6 -75h7q70 0 139 49q73 52 98 64t69 12q43 0 67 -25t24 -73zM714 187
q0 16 -21 25.5t-50 9.5q-44 0 -110 -35l-49 -27h158q72 0 72 27z" />
    <glyph glyph-name="afii62790" unicode="&#x635;" horiz-adv-x="593" arabic-form="initial" 
d="M593 187v-87h-411q-32 0 -65 21q-25 -21 -75 -21h-65v60h65q35 0 48 8t13 28q0 10 -6 42l14 21q25 -99 85 -99q28 0 69 14t70 35q65 49 93.5 62.5t70.5 13.5q46 0 70 -25.5t24 -72.5zM537 187q0 16 -20 25.5t-49 9.5q-9 0 -19 -1.5t-22 -6t-21.5 -8t-25 -10.5t-23.5 -11
t-25.5 -13t-23.5 -12h156q73 0 73 27z" />
    <glyph glyph-name="afii62791" unicode="&#x635;" horiz-adv-x="593" arabic-form="medial" 
d="M593 187v-87h-411q-32 0 -65 21q-25 -21 -75 -21h-65v60h65q35 0 48 8t13 28q0 10 -6 42l14 21q25 -99 85 -99q28 0 69 14t70 35q65 49 93.5 62.5t70.5 13.5q46 0 70 -25.5t24 -72.5zM537 187q0 16 -20 25.5t-49 9.5q-9 0 -19 -1.5t-22 -6t-21.5 -8t-25 -10.5t-23.5 -11
t-25.5 -13t-23.5 -12h156q73 0 73 27z" />
    <glyph glyph-name="afii62795" unicode="&#x636;" horiz-adv-x="769" arabic-form="final" 
d="M484 413l56 -29l-24 -49l-56 29zM769 187v-87h-406q-13 -80 -59.5 -115t-137.5 -35q-145 0 -145 105q0 62 27 119l27 57l11 -7q-38 -80 -38 -128q0 -42 31 -65t87 -23q76 0 127.5 29t51.5 74q0 61 -39 112l29 70q18 -31 24 -58t6 -75h7q70 0 139 49q73 52 98 64t69 12
q43 0 67 -25t24 -73zM714 187q0 16 -21 25.5t-50 9.5q-44 0 -110 -35l-49 -27h158q72 0 72 27z" />
    <glyph glyph-name="afii62793" unicode="&#x636;" horiz-adv-x="593" arabic-form="initial" 
d="M320 413l56 -29l-27 -49l-55 29zM593 187v-87h-411q-32 0 -65 21q-25 -21 -75 -21h-65v60h65q35 0 48 8t13 28q0 10 -6 42l14 21q25 -99 85 -99q28 0 69 14t70 35q65 49 93.5 62.5t70.5 13.5q46 0 70 -25.5t24 -72.5zM537 187q0 16 -20 25.5t-49 9.5q-9 0 -19 -1.5
t-22 -6t-21.5 -8t-25 -10.5t-23.5 -11t-25.5 -13t-23.5 -12h156q73 0 73 27z" />
    <glyph glyph-name="afii62794" unicode="&#x636;" horiz-adv-x="593" arabic-form="medial" 
d="M320 413l56 -29l-27 -49l-55 29zM593 187v-87h-411q-32 0 -65 21q-25 -21 -75 -21h-65v60h65q35 0 48 8t13 28q0 10 -6 42l14 21q25 -99 85 -99q28 0 69 14t70 35q65 49 93.5 62.5t70.5 13.5q46 0 70 -25.5t24 -72.5zM537 187q0 16 -20 25.5t-49 9.5q-9 0 -19 -1.5
t-22 -6t-21.5 -8t-25 -10.5t-23.5 -11t-25.5 -13t-23.5 -12h156q73 0 73 27z" />
    <glyph glyph-name="afii62798" unicode="&#x637;" horiz-adv-x="407" arabic-form="final" 
d="M407 187v-87h-430v60h51q111 0 111 98q0 60 -22 155l-14 55l-24 10q9 49 21 77q8 -28 67 -35q-7 -52 -13 -67l-16 4q28 -93 28 -154q0 -9 -2.5 -27.5t-3.5 -24.5l-6 -34q79 47 104.5 57.5t58.5 10.5q43 0 66.5 -25.5t23.5 -72.5zM352 187q0 35 -67 35q-63 0 -161 -62h149
q79 0 79 27z" />
    <glyph glyph-name="afii62796" unicode="&#x637;" horiz-adv-x="407" arabic-form="initial" 
d="M407 187v-87h-430v60h51q111 0 111 98q0 60 -22 155l-14 55l-24 10q9 49 21 77q8 -28 67 -35q-7 -52 -13 -67l-16 4q28 -93 28 -154q0 -9 -2.5 -27.5t-3.5 -24.5l-6 -34q79 47 104.5 57.5t58.5 10.5q43 0 66.5 -25.5t23.5 -72.5zM352 187q0 35 -67 35q-63 0 -161 -62h149
q79 0 79 27z" />
    <glyph glyph-name="afii62797" unicode="&#x637;" horiz-adv-x="407" arabic-form="medial" 
d="M407 187v-87h-430v60h51q111 0 111 98q0 60 -22 155l-14 55l-24 10q9 49 21 77q8 -28 67 -35q-7 -52 -13 -67l-16 4q28 -93 28 -154q0 -9 -2.5 -27.5t-3.5 -24.5l-6 -34q79 47 104.5 57.5t58.5 10.5q43 0 66.5 -25.5t23.5 -72.5zM352 187q0 35 -67 35q-63 0 -161 -62h149
q79 0 79 27z" />
    <glyph glyph-name="afii62801" unicode="&#x638;" horiz-adv-x="407" arabic-form="final" 
d="M258 448l56 -29l-26 -50l-56 29zM407 187v-87h-430v60h51q111 0 111 98q0 60 -22 155l-14 55l-24 10q9 49 21 77q8 -28 67 -35q-7 -52 -13 -67l-16 4q28 -93 28 -154q0 -9 -2.5 -27.5t-3.5 -24.5l-6 -34q79 47 104.5 57.5t58.5 10.5q43 0 66.5 -25.5t23.5 -72.5zM352 187
q0 35 -67 35q-63 0 -161 -62h149q79 0 79 27z" />
    <glyph glyph-name="afii62799" unicode="&#x638;" horiz-adv-x="407" arabic-form="initial" 
d="M258 448l56 -29l-26 -50l-56 29zM407 187v-87h-430v60h51q111 0 111 98q0 60 -22 155l-14 55l-24 10q9 49 21 77q8 -28 67 -35q-7 -52 -13 -67l-16 4q28 -93 28 -154q0 -9 -2.5 -27.5t-3.5 -24.5l-6 -34q79 47 104.5 57.5t58.5 10.5q43 0 66.5 -25.5t23.5 -72.5zM352 187
q0 35 -67 35q-63 0 -161 -62h149q79 0 79 27z" />
    <glyph glyph-name="afii62800" unicode="&#x638;" horiz-adv-x="407" arabic-form="medial" 
d="M258 448l56 -29l-26 -50l-56 29zM407 187v-87h-430v60h51q111 0 111 98q0 60 -22 155l-14 55l-24 10q9 49 21 77q8 -28 67 -35q-7 -52 -13 -67l-16 4q28 -93 28 -154q0 -9 -2.5 -27.5t-3.5 -24.5l-6 -34q79 47 104.5 57.5t58.5 10.5q43 0 66.5 -25.5t23.5 -72.5zM352 187
q0 35 -67 35q-63 0 -161 -62h149q79 0 79 27z" />
    <glyph glyph-name="afii62804" unicode="&#x639;" horiz-adv-x="315" arabic-form="final" 
d="M338 -91l3 -2l-69 -55q-132 0 -192.5 37.5t-60.5 118.5q0 86 60 152l52 49q-9 22 -25 22q-6 0 -16 -12h-6q9 47 25.5 65t51.5 18q31 0 53 -16t22 -40q0 -10 -5.5 -18t-16 -16.5t-11.5 -9.5q39 -42 82 -42h30v-60h-30q-54 0 -82.5 15.5t-46.5 52.5q-107 -75 -107 -132
q0 -63 66 -95t223 -32z" />
    <glyph glyph-name="afii62802" unicode="&#x639;" horiz-adv-x="369" arabic-form="initial" 
d="M329 208l-23 -63q-124 -45 -244 -45h-85v60h81q-22 31 -22 76q0 40 33.5 67t86.5 27q36 0 55.5 -11t53.5 -52l-6 -6q-42 14 -83 14q-46 0 -73 -10.5t-27 -27.5q0 -16 17.5 -37t44.5 -38l91 18q10 1 24.5 5t37 11.5t38.5 11.5z" />
    <glyph glyph-name="afii62803" unicode="&#x639;" horiz-adv-x="275" arabic-form="medial" 
d="M275 160v-60h-50q-25 0 -50 13t-34 33q-57 -46 -134 -46h-30v60h30q55 0 107 29l-14 19q-10 11 -24 11q-13 0 -21 -10h-7v20q0 36 18.5 50t64.5 14q94 0 94 -53q0 -26 -48 -60q5 -8 21 -14t27 -6h50z" />
    <glyph glyph-name="afii62807" unicode="&#x63a;" horiz-adv-x="315" arabic-form="final" 
d="M148 448l56 -29l-24 -50l-56 29zM338 -91l3 -2l-69 -55q-132 0 -192.5 37.5t-60.5 118.5q0 86 60 152l52 49q-9 22 -25 22q-6 0 -16 -12h-6q9 47 25.5 65t51.5 18q31 0 53 -16t22 -40q0 -10 -5.5 -18t-16 -16.5t-11.5 -9.5q39 -42 82 -42h30v-60h-30q-54 0 -82.5 15.5
t-46.5 52.5q-107 -75 -107 -132q0 -63 66 -95t223 -32z" />
    <glyph glyph-name="afii62805" unicode="&#x63a;" horiz-adv-x="369" arabic-form="initial" 
d="M131 448l56 -29l-27 -50l-56 29zM329 208l-23 -63q-124 -45 -244 -45h-85v60h81q-22 31 -22 76q0 40 33.5 67t86.5 27q36 0 55.5 -11t53.5 -52l-6 -6q-42 14 -83 14q-46 0 -73 -10.5t-27 -27.5q0 -16 17.5 -37t44.5 -38l91 18q10 1 24.5 5t37 11.5t38.5 11.5z" />
    <glyph glyph-name="afii62806" unicode="&#x63a;" horiz-adv-x="275" arabic-form="medial" 
d="M104 448l56 -29l-27 -50l-55 29zM275 160v-60h-50q-25 0 -50 13t-34 33q-57 -46 -134 -46h-30v60h30q55 0 107 29l-14 19q-10 11 -24 11q-13 0 -21 -10h-7v20q0 36 18.5 50t64.5 14q94 0 94 -53q0 -26 -48 -60q5 -8 21 -14t27 -6h50z" />
    <glyph glyph-name="afii62810" unicode="&#x641;" horiz-adv-x="552" arabic-form="final" 
d="M428 477l56 -29l-28 -51l-56 30zM552 198v-98h-314q-117 0 -170.5 27t-53.5 90q0 30 16 71l19 41l14 -8q-23 -48 -23 -74q0 -45 48.5 -66t156.5 -21h252q-82 22 -82 65q0 36 24.5 73t50.5 37q62 0 62 -137zM517 204q0 64 -32 64q-22 0 -22 -25q0 -15 10 -23t44 -16z" />
    <glyph glyph-name="afii62808" unicode="&#x641;" horiz-adv-x="188" arabic-form="initial" 
d="M85 509l56 -31l-24 -50l-56 29zM188 189v-89h-211v60h182q0 13 -7 57l-28 -8q-14 -5 -27 -5q-29 0 -44.5 14.5t-15.5 40.5q0 50 19 85.5t48 35.5q37 0 60.5 -55t23.5 -136zM132 278q-5 16 -18.5 29.5t-24.5 13.5q-9 0 -15 -8t-6 -19q0 -28 30 -28q10 0 34 12z" />
    <glyph glyph-name="afii62809" unicode="&#x641;" horiz-adv-x="183" arabic-form="medial" 
d="M105 495l49 -32l-29 -49l-49 33zM183 218v-118h-206v60h116q43 0 68 8q-71 10 -92.5 25t-21.5 50q0 39 21 70.5t49 31.5q31 0 48.5 -36t17.5 -91zM153 219q-17 67 -49 67q-9 0 -15.5 -8t-6.5 -18q0 -22 13.5 -30t57.5 -11z" />
    <glyph glyph-name="afii62813" unicode="&#x642;" horiz-adv-x="407" arabic-form="final" 
d="M310 478l56 -29l-25 -49l-55 29zM232 447l56 -28l-27 -50l-53 29zM407 148v-65q0 -64 -57.5 -99t-161.5 -35q-165 0 -165 114q0 80 48 167l14 -6q-35 -76 -35 -131q0 -85 140 -85q80 0 135 28t55 71q0 31 -3 41q-30 -14 -54 -14q-33 0 -52 17t-19 46q0 42 22 77.5
t49 35.5q37 0 60.5 -47t23.5 -115zM352 210q-10 24 -17.5 32t-18.5 8q-31 0 -31 -27q0 -11 9.5 -18t21.5 -7q10 0 36 12z" />
    <glyph glyph-name="afii62811" unicode="&#x642;" horiz-adv-x="188" arabic-form="initial" 
d="M120 518l56 -29l-27 -49l-56 29zM42 488l56 -31l-27 -49l-55 28zM188 189v-89h-211v60h182q0 13 -7 57l-28 -8q-14 -5 -27 -5q-29 0 -44.5 14.5t-15.5 40.5q0 50 19 85.5t48 35.5q37 0 60.5 -55t23.5 -136zM132 278q-5 16 -18.5 29.5t-24.5 13.5q-9 0 -15 -8t-6 -19
q0 -28 30 -28q10 0 34 12z" />
    <glyph glyph-name="afii62812" unicode="&#x642;" horiz-adv-x="183" arabic-form="medial" 
d="M127 509l42 -27l-29 -47l-42 28zM50 488l41 -27l-27 -47l-42 27zM183 218v-118h-206v60h116q43 0 68 8q-71 10 -92.5 25t-21.5 50q0 39 21 70.5t49 31.5q31 0 48.5 -36t17.5 -91zM153 219q-17 67 -49 67q-9 0 -15.5 -8t-6.5 -18q0 -22 13.5 -30t57.5 -11z" />
    <glyph glyph-name="afii62816" unicode="&#x643;" horiz-adv-x="421" arabic-form="final" 
d="M295 309q0 -37 -24.5 -57.5t-69.5 -20.5q-42 0 -91 19l4 7q13 0 20 -3l34 -1h9q35 0 61.5 12t26.5 27q0 7 -6.5 12t-13.5 5q-12 0 -14 -1l-23 -1q-21 0 -21 20q0 29 30.5 69.5t61.5 50.5l-6 -46q-57 -14 -57 -43q0 -10 17 -10q10 0 12 1l19 1q17 1 24 -9t7 -32zM421 167
v-67h-253q-84 0 -118.5 20.5t-34.5 69.5q0 26 15 69l20 40l12 -7q-19 -44 -19 -69q0 -63 125 -63h218l-43 289l-16 8q0 53 15 84l6 -2q0 -19 24 -29l36 -14q0 -20 -11 -67l-17 6z" />
    <glyph glyph-name="afii57410" unicode="&#x643;" horiz-adv-x="275" arabic-form="initial" 
d="M275 160v-60h-298v60h260q-25 37 -55.5 63t-83.5 57l-12 -9l-39 30q-21 15 -21 28q0 58 27 91.5t93 55.5l97 37v-58l-73 -23q-101 -35 -101 -49q0 -7 22 -25l27 -21q115 -91 157 -177z" />
    <glyph glyph-name="afii62815" unicode="&#x643;" horiz-adv-x="275" arabic-form="medial" 
d="M275 160v-60h-298v60h260q-25 37 -55.5 63t-83.5 57l-12 -9l-39 30q-21 15 -21 28q0 58 27 91.5t93 55.5l97 37v-58l-73 -23q-101 -35 -101 -49q0 -7 22 -25l27 -21q115 -91 157 -177z" />
    <glyph glyph-name="afii62819" unicode="&#x644;" horiz-adv-x="355" arabic-form="final" 
d="M355 142q0 -71 -46 -104t-142 -33q-69 0 -106.5 27t-37.5 78q0 38 13 76.5t48 99.5l9 -7q-15 -29 -21 -41l-16 -43q-6 -18 -6 -47q0 -84 116 -84q59 0 110 20.5t51 50.5q0 42 -11 112l-31 203l-17 10q0 47 19 81h6q1 -21 16 -28l40 -17q0 -36 -8 -67l-20 6v-2
q-1 -8 9 -67q25 -159 25 -224z" />
    <glyph glyph-name="afii62817" unicode="&#x644;" horiz-adv-x="146" arabic-form="initial" 
d="M146 167v-67h-169v60h134l-41 289l-19 8q0 49 18 84l3 -2q0 -15 15.5 -24.5t43.5 -18.5q0 -43 -11 -67l-15 6z" />
    <glyph glyph-name="afii62818" unicode="&#x644;" horiz-adv-x="146" arabic-form="medial" 
d="M146 167v-67h-169v60h134l-41 289l-19 8q0 49 18 84l3 -2q0 -15 15.5 -24.5t43.5 -18.5q0 -43 -11 -67l-15 6z" />
    <glyph glyph-name="afii62822" unicode="&#x645;" horiz-adv-x="237" arabic-form="final" 
d="M237 160v-60h-41q-64 0 -108.5 -14t-44.5 -35q0 -22 16 -74.5t16 -73.5q0 -20 -10 -51l-42 139q-10 41 -10 52q0 60 35 83.5t128 33.5q-24 26 -34.5 32t-27.5 6q-22 0 -39 -24l-17 9q28 67 74 67q20 0 37.5 -12.5t40.5 -40.5z" />
    <glyph glyph-name="afii62820" unicode="&#x645;" horiz-adv-x="275" arabic-form="initial" 
d="M275 160v-60h-35q-58 0 -109 42q-21 -24 -42 -33t-60 -9h-52v60h51q26 0 51.5 17t43 38t44 42.5t52.5 29.5q56 -84 56 -127zM233 162l4 6q-12 45 -35 71q-25 -8 -46 -38q28 -29 77 -39z" />
    <glyph glyph-name="afii62821" unicode="&#x645;" horiz-adv-x="275" arabic-form="medial" 
d="M275 160v-60h-35q-58 0 -109 42q-21 -24 -42 -33t-60 -9h-52v60h51q26 0 51.5 17t43 38t44 42.5t52.5 29.5q56 -84 56 -127zM233 162l4 6q-12 45 -35 71q-25 -8 -46 -38q28 -29 77 -39z" />
    <glyph glyph-name="afii62825" unicode="&#x646;" horiz-adv-x="369" arabic-form="final" 
d="M187 391l53 -28l-24 -49l-54 29zM369 160v-60q0 -79 -48 -114.5t-153 -35.5q-145 0 -145 105q0 41 11.5 77t41.5 99l14 -7q-40 -79 -40 -128q0 -42 30.5 -65t86.5 -23q75 0 125.5 29t50.5 74q0 69 -35 112l28 70q33 -56 33 -133z" />
    <glyph glyph-name="afii62823" unicode="&#x646;" horiz-adv-x="170" arabic-form="initial" 
d="M86 446l59 -31l-27 -49l-56 28zM170 183v-83h-193v60h169q0 38 -7 56t-35 48l28 56q27 -36 32.5 -57.5t5.5 -79.5z" />
    <glyph glyph-name="afii62824" unicode="&#x646;" horiz-adv-x="170" arabic-form="medial" 
d="M86 446l59 -31l-27 -49l-56 28zM170 183v-83h-193v60h169q0 38 -7 56t-35 48l28 56q27 -36 32.5 -57.5t5.5 -79.5z" />
    <glyph glyph-name="afii62829" unicode="&#x648;" horiz-adv-x="302" arabic-form="final" 
d="M302 160v-40q0 -60 -46 -117t-102 -57q-40 0 -138 34l6 12q63 -14 78 -14q50 0 87 23.5t93 97.5q-96 0 -96 70q0 38 20 68.5t46 30.5q52 0 52 -108zM281 159q-14 56 -41 56q-8 0 -15.5 -7.5t-7.5 -16.5q0 -32 64 -32z" />
    <glyph glyph-name="afii62830" unicode="&#x649;" horiz-adv-x="412" arabic-form="final" 
d="M412 160v-60h-61q-105 0 -105 -14q0 -9 31 -9t61.5 -4t30.5 -25q0 -65 -45.5 -95t-148.5 -30q-75 0 -118.5 26.5t-43.5 73.5q0 38 9.5 62.5t53.5 90.5l14 -7l-27 -43q-20 -40 -20 -62q0 -41 42 -63t118 -22q54 0 93 9.5t39 24.5q0 10 -22 10l-55 5q-41 0 -41 22
q0 53 39 81.5t95 28.5h61z" />
    <glyph glyph-name="afii62833" unicode="&#x64a;" horiz-adv-x="412" arabic-form="final" 
d="M412 160v-60h-61q-105 0 -105 -14q0 -9 31 -9t61.5 -4t30.5 -25q0 -65 -45.5 -95t-148.5 -30q-75 0 -118.5 26.5t-43.5 73.5q0 38 9.5 62.5t53.5 90.5l14 -7l-27 -43q-20 -40 -20 -62q0 -41 42 -63t118 -22q54 0 93 9.5t39 24.5q0 10 -22 10l-55 5q-41 0 -41 22
q0 53 39 81.5t95 28.5h61zM231 -92l40 -27l-33 -29l-37 23zM161 -92l40 -27l-33 -29l-40 29z" />
    <glyph glyph-name="afii62834" unicode="&#xfef5;" horiz-adv-x="380" arabic-form="isolated" 
d="M355 462l-17 -62l-21 11l3 -32v-9q0 -73 -53 -174l19 -36q7 -35 7 -46q0 -18 -4 -42q-78 -16 -157 -16v9q2 30 8 49q56 29 98 81l-34 64l-42 64l-17 25q-10 10 -19 10q-1 0 -11 -4t-12 -4q-21 0 -48 40t-27 59q0 53 16 53q19 0 60.5 -47.5t84.5 -117.5l35 -56
q23 -42 30 -57q24 46 32 87t8 110l-20 12q0 38 15 73l10 -1q1 -9 8 -17t14 -11.5t18.5 -8t15.5 -6.5zM266 128q0 15 -15 42q-32 -34 -71 -59q50 0 68 3.5t18 13.5zM156 569l5 -3q-23 -26 -49 -26q-21 0 -34 6l-35 12q-3 0 -17 -6l-4 3l12 17q14 7 21 7l5 -2q4 -2 11.5 -4.5
t16 -4.5t17.5 -4t15 -2q10 0 36 7z" />
    <glyph glyph-name="afii62835" unicode="&#xfef6;" horiz-adv-x="420" arabic-form="final" 
d="M279 279q0 -14 -5 -25q-20 47 -60 93t-61 46q-3 0 -10 -8t-12 -8q-36 0 -63 37t-27 67q0 21 14 21q24 0 77 -32q66 -40 106.5 -92t40.5 -99zM420 160v-60h-21q-69 0 -69 172q-15 -40 -21.5 -57t-19.5 -43t-21 -34.5t-25.5 -22.5t-34 -17t-45 -8.5t-59.5 -6t-78 -0.5v9
q159 48 225 101.5t66 141.5q0 65 -15 121l25 57l16 -106q5 -28 9 -85l12 -89q4 -33 14.5 -53t20.5 -20h21zM160 569l3 -3q-20 -26 -49 -26q-20 0 -31 6l-36 12q-6 0 -18 -6l-3 3q9 15 14.5 19.5t17.5 4.5q-1 0 11 -4.5t29 -8.5t26 -4q6 0 36 7z" />
    <glyph glyph-name="afii62836" unicode="&#xfef7;" horiz-adv-x="380" arabic-form="isolated" 
d="M355 462l-17 -62l-21 11l3 -32v-9q0 -73 -53 -174l19 -36q7 -35 7 -46q0 -18 -4 -42q-78 -16 -157 -16v9q2 30 8 49q56 29 98 81l-34 64l-42 64l-17 25q-10 10 -19 10q-1 0 -11 -4t-12 -4q-21 0 -48 40t-27 59q0 53 16 53q19 0 60.5 -47.5t84.5 -117.5l35 -56
q23 -42 30 -57q24 46 32 87t8 110l-20 12q0 38 15 73l10 -1q1 -9 8 -17t14 -11.5t18.5 -8t15.5 -6.5zM266 128q0 15 -15 42q-32 -34 -71 -59q50 0 68 3.5t18 13.5zM110 560q0 -12 -33 -26l-64 -22q0 18 35 28q-25 13 -25 26q0 11 20 30.5t34 19.5q16 0 16 -16q0 -11 -7 -21
q-9 9 -23 9q-7 0 -14 -3t-7 -6q0 -6 15.5 -15.5t26.5 -9.5q9 0 26 6z" />
    <glyph glyph-name="afii62837" unicode="&#xfef8;" horiz-adv-x="420" arabic-form="final" 
d="M279 279q0 -14 -5 -25q-20 47 -60 93t-61 46q-3 0 -10 -8t-12 -8q-36 0 -63 37t-27 67q0 21 14 21q24 0 77 -32q66 -40 106.5 -92t40.5 -99zM420 160v-60h-21q-69 0 -69 172q-15 -40 -21.5 -57t-19.5 -43t-21 -34.5t-25.5 -22.5t-34 -17t-45 -8.5t-59.5 -6t-78 -0.5v9
q159 48 225 101.5t66 141.5q0 65 -15 121l25 57l16 -106q5 -28 9 -85l12 -89q4 -33 14.5 -53t20.5 -20h21zM114 560q0 -7 -6 -12.5t-25 -13.5l-63 -22q0 18 34 28q-24 13 -24 26q0 11 20 30.5t34 19.5q16 0 16 -16q0 -12 -8 -21q-9 9 -22 9q-7 0 -14.5 -3t-7.5 -6
q0 -6 16 -15.5t27 -9.5q12 0 23 6z" />
    <glyph glyph-name="afii62838" unicode="&#xfef9;" horiz-adv-x="380" arabic-form="isolated" 
d="M355 462l-17 -62l-21 11l3 -32v-9q0 -73 -53 -174l19 -36q7 -35 7 -46q0 -18 -4 -42q-78 -16 -157 -16v9q2 30 8 49q56 29 98 81l-34 64l-42 64l-17 25q-10 10 -19 10q-1 0 -11 -4t-12 -4q-21 0 -48 40t-27 59q0 53 16 53q19 0 60.5 -47.5t84.5 -117.5l35 -56
q23 -42 30 -57q24 46 32 87t8 110l-20 12q0 38 15 73l10 -1q1 -9 8 -17t14 -11.5t18.5 -8t15.5 -6.5zM266 128q0 15 -15 42q-32 -34 -71 -59q50 0 68 3.5t18 13.5zM212 -30q0 -11 -9 -17l-22 -9l-63 -21q0 17 34 27q-24 13 -24 24q0 14 20.5 33t33.5 19q16 0 16 -18
q0 -6 -8 -21q-11 11 -22 11q-7 0 -14.5 -3.5t-7.5 -7.5q0 -5 16 -14t27 -9q12 0 23 6z" />
    <glyph glyph-name="afii62839" unicode="&#xfefa;" horiz-adv-x="420" arabic-form="final" 
d="M279 279q0 -14 -5 -25q-20 47 -60 93t-61 46q-3 0 -10 -8t-12 -8q-36 0 -63 37t-27 67q0 21 14 21q24 0 77 -32q66 -40 106.5 -92t40.5 -99zM420 160v-60h-21q-69 0 -69 172q-15 -40 -21.5 -57t-19.5 -43t-21 -34.5t-25.5 -22.5t-34 -17t-45 -8.5t-59.5 -6t-78 -0.5v9
q159 48 225 101.5t66 141.5q0 65 -15 121l25 57l16 -106q5 -28 9 -85l12 -89q4 -33 14.5 -53t20.5 -20h21zM161 -30q0 -9 -6 -14t-24 -12l-66 -21q0 16 35 27q-23 13 -23 24t20 31.5t34 20.5q16 0 16 -18q0 -6 -7 -21q-11 11 -23 11q-24 0 -24 -11q0 -6 16.5 -14.5
t28.5 -8.5q10 0 23 6z" />
    <glyph glyph-name="afii62840" unicode="&#xfefb;" horiz-adv-x="380" arabic-form="isolated" 
d="M355 462l-17 -62l-21 11l3 -32v-9q0 -73 -53 -174l19 -36q7 -35 7 -46q0 -18 -4 -42q-78 -16 -157 -16v9q2 30 8 49q56 29 98 81l-34 64l-42 64l-17 25q-10 10 -19 10q-1 0 -11 -4t-12 -4q-21 0 -48 40t-27 59q0 53 16 53q19 0 60.5 -47.5t84.5 -117.5l35 -56
q23 -42 30 -57q24 46 32 87t8 110l-20 12q0 38 15 73l10 -1q1 -9 8 -17t14 -11.5t18.5 -8t15.5 -6.5zM266 128q0 15 -15 42q-32 -34 -71 -59q50 0 68 3.5t18 13.5z" />
    <glyph glyph-name="afii62841" unicode="&#xfefc;" horiz-adv-x="420" arabic-form="final" 
d="M279 279q0 -14 -5 -25q-20 47 -60 93t-61 46q-3 0 -10 -8t-12 -8q-36 0 -63 37t-27 67q0 21 14 21q24 0 77 -32q66 -40 106.5 -92t40.5 -99zM420 160v-60h-21q-69 0 -69 172q-15 -40 -21.5 -57t-19.5 -43t-21 -34.5t-25.5 -22.5t-34 -17t-45 -8.5t-59.5 -6t-78 -0.5v9
q159 48 225 101.5t66 141.5q0 65 -15 121l25 57l16 -106q5 -28 9 -85l12 -89q4 -33 14.5 -53t20.5 -20h21z" />
    <glyph glyph-name=".notdef" 
d="M436 0h-350v436h350v-436zM98 427v-415h329v415h-329z" />
    <glyph glyph-name=".null" horiz-adv-x="0" 
 />
    <glyph glyph-name="nonmarkingreturn" horiz-adv-x="195" 
 />
    <glyph glyph-name="space" unicode=" " horiz-adv-x="195" 
 />
    <glyph glyph-name="space" unicode="&#xa0;" horiz-adv-x="195" 
 />
    <glyph glyph-name="exclam" unicode="!" horiz-adv-x="195" 
d="M119 125h-41l-17 266v111h74v-111zM133 0h-70v70h70v-70z" />
    <glyph glyph-name="quotedbl" unicode="&#x22;" horiz-adv-x="247" 
d="M86 323h-37l-16 96v83h70v-83zM198 323h-36l-16 96v83h70v-83z" />
    <glyph glyph-name="numbersign" unicode="#" horiz-adv-x="390" 
d="M86 -8h-51l29 146h-57v50h69l24 125h-93v50h104l29 147h51l-29 -147h109l29 147h51l-30 -147h59v-50h-70l-24 -125h94v-50h-105l-30 -146h-50l29 146h-107zM152 313l-26 -125h107l26 125h-107z" />
    <glyph glyph-name="dollar" unicode="$" horiz-adv-x="390" 
d="M210 -72h-35v60q-69 11 -107.5 45t-41.5 106l60 13q15 -108 89 -110v195q-62 12 -101 46.5t-39 94.5q0 57 34.5 95.5t105.5 44.5v29h35v-29q119 -13 134 -124l-64 -9q-4 36 -21 54.5t-49 27.5v-179q78 -16 112.5 -50.5t34.5 -95.5q0 -64 -40.5 -106.5t-106.5 -44.5v-63z
M175 296v171q-36 -5 -57 -28t-21 -56q0 -62 78 -87zM210 229v-187q37 5 60 31.5t23 65.5q0 35 -17 55t-66 35z" />
    <glyph glyph-name="percent" unicode="%" horiz-adv-x="623" 
d="M41 380q0 57 28 93.5t77 36.5t78.5 -34.5t29.5 -98.5q0 -61 -30 -96.5t-77 -35.5q-48 0 -77 34.5t-29 100.5zM147 468q-24 0 -39 -22.5t-15 -69.5q0 -89 54 -89q55 0 55 92q0 89 -55 89zM198 -19h-50l274 529h49zM364 118q0 56 28 92t78 36q49 0 79.5 -34t30.5 -99
q0 -61 -31 -96.5t-79 -35.5q-46 0 -76 35.5t-30 101.5zM471 204q-52 0 -52 -92q0 -89 52 -89q27 0 40.5 21t13.5 73q0 87 -54 87z" />
    <glyph glyph-name="ampersand" unicode="&#x26;" horiz-adv-x="467" 
d="M334 58q-62 -66 -145 -66q-68 0 -114 43.5t-46 103.5q0 91 120 149q-57 65 -57 110t36.5 78.5t88.5 33.5q51 0 84.5 -31t33.5 -75q0 -71 -96 -124l90 -113q19 42 23 69l66 -13q-20 -70 -46 -109q43 -52 78 -77l-42 -49q-41 30 -74 70zM181 351l27 -30q38 22 51 39.5
t13 39.5q0 26 -16.5 43t-40.5 17q-25 0 -42 -16.5t-17 -39.5q-1 -25 25 -53zM294 107l-113 140q-84 -48 -84 -106q0 -32 26 -63t66 -31q29 0 58.5 16.5t46.5 43.5z" />
    <glyph glyph-name="quotesingle" unicode="'" horiz-adv-x="133" 
d="M84 323h-37l-17 95v84h70v-84z" />
    <glyph glyph-name="parenleft" unicode="(" horiz-adv-x="233" 
d="M208 -147h-45q-54 69 -87.5 155t-33.5 174q0 166 121 328h45q-60 -109 -81.5 -175t-21.5 -154q0 -164 103 -328z" />
    <glyph glyph-name="parenright" unicode=")" horiz-adv-x="233" 
d="M86 -147h-44q103 164 103 328q0 87 -17 148.5t-86 180.5h44q122 -160 122 -328q0 -89 -34 -175t-88 -154z" />
    <glyph glyph-name="asterisk" unicode="*" horiz-adv-x="273" 
d="M22 408l15 49q43 -12 80 -32q-3 22 -7 85h50q-1 -12 -4 -41.5t-4 -43.5q45 21 80 32l15 -49q-46 -14 -85 -17q27 -25 60 -67l-41 -28q-31 45 -48 74q-21 -44 -43 -74l-41 28q49 60 56 67q-4 1 -35.5 7t-47.5 10z" />
    <glyph glyph-name="plus" unicode="+" horiz-adv-x="408" 
d="M233 82h-58v136h-135v57h135v137h58v-137h137v-57h-137v-136z" />
    <glyph glyph-name="comma" unicode="," horiz-adv-x="195" 
d="M97 0h-35v70h70v-70q0 -75 -56 -99l-18 27q39 16 39 72z" />
    <glyph glyph-name="hyphen" unicode="-" horiz-adv-x="233" 
d="M211 149h-189v63h189v-63z" />
    <glyph glyph-name="hyphen" unicode="&#xad;" horiz-adv-x="233" 
d="M211 149h-189v63h189v-63z" />
    <glyph glyph-name="period" unicode="." horiz-adv-x="195" 
d="M133 0h-70v70h70v-70z" />
    <glyph glyph-name="slash" unicode="/" horiz-adv-x="195" 
d="M49 -8h-49l146 518h49z" />
    <glyph glyph-name="zero" unicode="0" horiz-adv-x="390" 
d="M29 247q0 256 162 256q80 0 122.5 -60t42.5 -196q0 -255 -165 -255q-162 0 -162 255zM92 247q0 -118 26.5 -161.5t72.5 -43.5q49 0 75.5 45t26.5 160q0 116 -27 161t-75 45q-99 0 -99 -206z" />
    <glyph glyph-name="one" unicode="1" horiz-adv-x="390" 
d="M260 503v-503h-62v392q-39 -38 -122 -75v61q104 50 146 125h38z" />
    <glyph glyph-name="two" unicode="2" horiz-adv-x="390" 
d="M106 58h246v-58h-331q0 47 29 87.5t99 96.5q78 63 108.5 104.5t30.5 76.5q0 37 -26 62.5t-67 25.5q-46 0 -72 -27.5t-26 -74.5l-64 7q7 71 49 108t114 37q70 0 112.5 -39.5t42.5 -99.5q-5 -54 -30 -93.5t-117 -115.5q-53 -44 -68 -59t-30 -38z" />
    <glyph glyph-name="three" unicode="3" horiz-adv-x="390" 
d="M29 132l62 8q21 -98 98 -98q43 0 73.5 30t30.5 75q0 42 -28 69.5t-70 27.5q-6 0 -43 -7l7 55h9q42 0 72.5 21t30.5 60q0 35 -23 57.5t-60 22.5q-77 0 -91 -90l-62 10q11 62 51.5 96t100.5 34q63 0 105 -38.5t42 -92.5q0 -67 -70 -100q44 -10 68.5 -43t24.5 -81
q0 -66 -48 -111t-120 -45q-67 0 -111 39t-49 101z" />
    <glyph glyph-name="four" unicode="4" horiz-adv-x="390" 
d="M288 0h-62v120h-218v56l230 326h50v-326h68v-56h-68v-120zM70 176h156v225z" />
    <glyph glyph-name="five" unicode="5" horiz-adv-x="390" 
d="M29 132l64 6q8 -47 33.5 -71.5t63.5 -24.5q44 0 74.5 34t30.5 87q0 54 -29 84.5t-77 30.5q-58 0 -91 -48l-57 7l48 258h248v-60h-199l-27 -134q41 30 94 30q67 0 112 -45.5t45 -116.5q0 -76 -49 -126.5t-123 -50.5q-68 0 -112 38.5t-49 101.5z" />
    <glyph glyph-name="six" unicode="6" horiz-adv-x="390" 
d="M349 378l-62 -5q-19 80 -84 80q-53 0 -84 -49t-33 -145q46 65 123 65q63 0 105.5 -45.5t42.5 -116.5q0 -73 -45 -121.5t-111 -48.5q-81 0 -127.5 59t-46.5 182q0 270 178 270q60 0 97.5 -33t46.5 -92zM97 162q0 -49 30.5 -84.5t70.5 -35.5q41 0 68.5 32t27.5 86
q0 51 -27 81t-70 30t-71.5 -30t-28.5 -79z" />
    <glyph glyph-name="seven" unicode="7" horiz-adv-x="390" 
d="M279 435h-245v60h323v-48q-72 -76 -126 -199.5t-64 -247.5h-63q0 92 52.5 227t122.5 208z" />
    <glyph glyph-name="eight" unicode="8" horiz-adv-x="390" 
d="M124 272q-75 25 -75 101q0 56 39.5 93t102.5 37q66 0 106 -37t40 -94q0 -75 -72 -100q93 -32 93 -130q0 -65 -45.5 -107.5t-118.5 -42.5q-75 0 -120.5 43t-45.5 111q0 48 25.5 81.5t70.5 44.5zM112 377q0 -37 22.5 -59.5t59.5 -22.5q36 0 58 22t22 55q0 34 -23 57.5
t-57 23.5q-35 0 -58.5 -22.5t-23.5 -53.5zM91 145q0 -43 29 -73t75 -30q43 0 71.5 28.5t28.5 71.5q0 46 -29 74.5t-75 28.5q-43 0 -71.5 -28.5t-28.5 -71.5z" />
    <glyph glyph-name="nine" unicode="9" horiz-adv-x="390" 
d="M37 117l61 4q13 -79 83 -79q54 0 84.5 49t30.5 133v12q-17 -30 -49.5 -48.5t-69.5 -18.5q-64 0 -106 46.5t-42 119.5q0 74 45 121t113 47q81 -6 126 -59t45 -173q0 -279 -178 -279q-60 0 -97 32.5t-46 92.5zM289 337q0 52 -27.5 84t-66.5 32q-43 0 -73 -34t-30 -88
q0 -47 28.5 -77t70.5 -30q45 0 71.5 30t26.5 83z" />
    <glyph glyph-name="colon" unicode=":" horiz-adv-x="195" 
d="M133 293h-70v70h70v-70zM133 0h-70v70h70v-70z" />
    <glyph glyph-name="semicolon" unicode=";" horiz-adv-x="195" 
d="M132 293h-70v70h70v-70zM97 0h-35v70h70v-70q0 -75 -56 -99l-18 27q39 16 39 72z" />
    <glyph glyph-name="semicolon" unicode="&#x37e;" horiz-adv-x="195" 
d="M132 293h-70v70h70v-70zM97 0h-35v70h70v-70q0 -75 -56 -99l-18 27q39 16 39 72z" />
    <glyph glyph-name="less" unicode="&#x3c;" horiz-adv-x="408" 
d="M370 77l-333 141v60l333 140v-62l-264 -109l264 -108v-62z" />
    <glyph glyph-name="equal" unicode="=" horiz-adv-x="408" 
d="M370 351v-57h-330v57h330zM370 201v-59h-330v59h330z" />
    <glyph glyph-name="greater" unicode="&#x3e;" horiz-adv-x="408" 
d="M370 278v-60l-333 -141v62l264 108l-264 109v62z" />
    <glyph glyph-name="question" unicode="?" horiz-adv-x="390" 
d="M219 124h-58v17q0 48 9 67q15 33 69 79q32 27 42.5 44t10.5 38q0 37 -28 64t-69 27q-85 0 -102 -103l-63 8q9 71 51 108t113 37q70 0 115.5 -39.5t45.5 -98.5q0 -33 -16.5 -61.5t-59.5 -65.5q-42 -39 -48 -51q-4 -8 -11 -63q-1 -4 -1 -7zM229 0h-70v70h70v-70z" />
    <glyph glyph-name="at" unicode="@" horiz-adv-x="712" 
d="M397 56q-46 -57 -105 -57q-48 0 -86 43t-38 111q0 92 59 155t118 63q63 0 104 -63l12 54h62l-52 -230q-9 -42 -9 -54q0 -9 7 -15.5t16 -6.5q52 0 92 66t40 131q0 84 -70 146t-170 62q-121 0 -204.5 -82.5t-83.5 -205.5q0 -126 76 -198t206 -72q182 0 252 104h63
q-34 -65 -112 -109.5t-190 -44.5q-163 0 -255 84.5t-92 223.5q0 155 96.5 252.5t243.5 97.5q121 0 207 -73t86 -194q0 -91 -64.5 -168t-142.5 -77q-33 0 -48.5 13t-17.5 44zM231 148q0 -45 22 -72t53 -27q41 0 82 52t41 121q0 46 -22.5 72t-56.5 26q-46 0 -82.5 -54.5
t-36.5 -117.5z" />
    <glyph glyph-name="A" unicode="A" horiz-adv-x="467" 
d="M70 0h-71l192 502h73l204 -502h-76l-57 152h-210zM198 352l-53 -147h169l-53 139q-34 96 -36 104q-24 -87 -27 -96z" />
    <glyph glyph-name="B" unicode="B" horiz-adv-x="467" 
d="M243 0h-192v502h188q80 0 123.5 -35.5t43.5 -94.5q0 -72 -70 -106q45 -12 69 -44t24 -76q0 -146 -186 -146zM118 442v-150h107q64 0 90 16t26 57q-6 42 -26 59.5t-83 17.5h-114zM118 231v-173h125q119 0 119 88q0 85 -129 85h-115z" />
    <glyph glyph-name="C" unicode="C" horiz-adv-x="505" 
d="M412 175l65 -15q-42 -168 -218 -168q-109 0 -165.5 74t-58.5 188q0 118 66 187t171 69q74 0 125.5 -38.5t71.5 -107.5l-64 -15q-36 104 -134 104q-86 0 -126.5 -56.5t-40.5 -142.5q0 -97 43 -151.5t118 -54.5q56 0 94.5 32.5t52.5 94.5z" />
    <glyph glyph-name="D" unicode="D" horiz-adv-x="505" 
d="M236 0h-181v502h171q242 0 242 -249q0 -253 -232 -253zM120 442v-384h106q100 0 137 47.5t37 148.5q0 110 -44 149t-131 39h-105z" />
    <glyph glyph-name="E" unicode="E" horiz-adv-x="467" 
d="M429 0h-373v502h362v-60h-297v-154h278v-58h-278v-172h308v-58z" />
    <glyph glyph-name="F" unicode="F" horiz-adv-x="427" 
d="M124 0h-67v502h337v-60h-270v-155h234v-58h-234v-229z" />
    <glyph glyph-name="G" unicode="G" horiz-adv-x="545" 
d="M435 196h-147v61h214v-187q-98 -78 -221 -78q-104 0 -174 70.5t-70 174.5q0 117 63 195t173 78q94 0 147.5 -36t71.5 -112l-58 -18q-16 55 -50.5 82t-95.5 27q-51 0 -88.5 -18t-57 -48.5t-28.5 -64t-9 -70.5q0 -98 50.5 -149.5t133.5 -51.5q42 0 83 15.5t63 37.5v92z" />
    <glyph glyph-name="H" unicode="H" horiz-adv-x="505" 
d="M121 0h-65v502h65v-207h262v207h66v-502h-66v237h-262v-237z" />
    <glyph glyph-name="I" unicode="I" horiz-adv-x="195" 
d="M132 0h-67v502h67v-502z" />
    <glyph glyph-name="J" unicode="J" horiz-adv-x="350" 
d="M20 142l59 7q4 -55 22 -77t53 -22q41 0 58.5 23.5t17.5 81.5v347h65v-342q0 -87 -35 -127.5t-105 -40.5q-135 0 -135 150z" />
    <glyph glyph-name="K" unicode="K" horiz-adv-x="467" 
d="M118 0h-67v502h67v-250l248 250h90l-210 -203l221 -299h-89l-177 253l-83 -79v-174z" />
    <glyph glyph-name="L" unicode="L" horiz-adv-x="390" 
d="M364 0h-313v502h67v-444h246v-58z" />
    <glyph glyph-name="M" unicode="M" horiz-adv-x="583" 
d="M117 0h-66v502h101l119 -356q5 -17 13 -41.5t10 -32.5q18 55 27 81l120 349h90v-502h-64v420l-146 -420h-61l-143 427v-427z" />
    <glyph glyph-name="N" unicode="N" horiz-adv-x="505" 
d="M117 0h-63v502h67l264 -395v395h63v-502h-69l-262 393v-393z" />
    <glyph glyph-name="O" unicode="O" horiz-adv-x="545" 
d="M34 244q0 123 66 194.5t174 71.5q111 0 174.5 -75t63.5 -197q0 -107 -67.5 -176.5t-164.5 -69.5q-109 0 -177.5 72.5t-68.5 179.5zM103 244q0 -90 47.5 -143t122.5 -53q77 0 125 54t48 149q0 91 -47.5 146.5t-124.5 55.5q-74 0 -122.5 -51t-48.5 -158z" />
    <glyph glyph-name="P" unicode="P" horiz-adv-x="467" 
d="M120 0h-65v502h189q192 0 192 -146q0 -152 -186 -152h-130v-204zM120 442v-178h130q119 0 119 91q0 47 -30 67t-92 20h-127z" />
    <glyph glyph-name="Q" unicode="Q" horiz-adv-x="545" 
d="M434 54q51 -36 85 -47l-20 -47q-54 19 -107 62q-53 -30 -124 -30q-105 0 -172 72.5t-67 186.5q0 115 67.5 187t174.5 72q105 0 172 -73t67 -186q0 -123 -76 -197zM272 90l16 49q60 -18 95 -48q58 53 58 160q0 91 -47 146.5t-123 55.5q-78 0 -125.5 -52t-47.5 -150
q0 -96 47.5 -149.5t125.5 -53.5q39 0 66 14q-31 19 -65 28z" />
    <glyph glyph-name="R" unicode="R" horiz-adv-x="505" 
d="M121 0h-66v502h240q83 0 118.5 -35t41.5 -103q0 -55 -35 -91t-105 -44q53 -29 93 -94l89 -135h-84l-65 104q-38 60 -61.5 85t-38.5 29.5t-50 4.5h-77v-223zM121 446v-166h143q123 0 123 84q0 82 -107 82h-159z" />
    <glyph glyph-name="S" unicode="S" horiz-adv-x="467" 
d="M30 161l63 6q8 -54 46 -85.5t104 -31.5q56 0 89.5 25t33.5 60q0 48 -58 73q-19 6 -54 16q-129 37 -166.5 61.5t-37.5 85.5q0 62 48.5 100.5t127.5 38.5q86 0 136 -41t53 -110l-64 -3q-9 94 -121 94q-58 0 -87 -20t-29 -53q0 -30 21.5 -47t97.5 -35q115 -27 155.5 -59
t40.5 -95t-51 -106t-133 -43q-99 0 -155.5 45t-59.5 124z" />
    <glyph glyph-name="T" unicode="T" horiz-adv-x="427" 
d="M247 0h-65v442h-166v60h397v-60h-166v-442z" />
    <glyph glyph-name="U" unicode="U" horiz-adv-x="505" 
d="M383 211v291h66v-291q0 -111 -43 -162.5t-153 -56.5q-106 0 -152 51.5t-46 167.5v291h66v-291q0 -91 27.5 -123t98.5 -37q75 0 105.5 34t30.5 126z" />
    <glyph glyph-name="V" unicode="V" horiz-adv-x="467" 
d="M265 0h-68l-195 502h73l129 -364q20 -57 27 -83q5 17 16 48t12 35l134 364h69z" />
    <glyph glyph-name="W" unicode="W" horiz-adv-x="660" 
d="M209 0h-68l-133 502h69l76 -329q12 -54 21 -103l22 92l96 340h80l71 -255q28 -91 40 -177l104 432h65l-136 -502h-63l-123 441z" />
    <glyph glyph-name="X" unicode="X" horiz-adv-x="467" 
d="M83 0h-81l195 261l-170 241h78l91 -130q36 -51 41 -62q15 28 38 59l102 133h72l-176 -237l189 -265h-82l-126 180q-9 12 -22 32l-23 -37z" />
    <glyph glyph-name="Y" unicode="Y" horiz-adv-x="467" 
d="M261 0h-66v212l-194 290h82l99 -152q25 -37 50 -85q16 28 55 90l97 147h78l-201 -290v-212z" />
    <glyph glyph-name="Z" unicode="Z" horiz-adv-x="427" 
d="M411 0h-397v62l257 321q16 22 51 59h-279v60h358v-60l-281 -349l-30 -35h321v-58z" />
    <glyph glyph-name="bracketleft" unicode="[" horiz-adv-x="195" 
d="M183 -139h-135v641h135v-52h-73v-539h73v-50z" />
    <glyph glyph-name="backslash" unicode="\" horiz-adv-x="195" 
d="M195 -8h-49l-146 518h49z" />
    <glyph glyph-name="bracketright" unicode="]" horiz-adv-x="195" 
d="M148 502v-641h-134v50h72v539h-72v52h134z" />
    <glyph glyph-name="asciicircum" unicode="^" horiz-adv-x="329" 
d="M163 440l-81 -204h-63l120 274h50l120 -274h-62z" />
    <glyph glyph-name="underscore" unicode="_" horiz-adv-x="390" 
d="M398 -139h-410v43h410v-43z" />
    <glyph glyph-name="grave" unicode="`" horiz-adv-x="233" 
d="M113 504l47 -96h-50l-80 96h83z" />
    <glyph glyph-name="a" unicode="a" horiz-adv-x="390" 
d="M282 44q-60 -52 -133 -52q-58 0 -90.5 28.5t-32.5 75.5q0 36 18.5 60t50 35.5t62.5 17t67.5 11t53.5 11.5l1 15q0 75 -89 75q-42 0 -62.5 -15.5t-30.5 -54.5l-61 8q11 57 50.5 84.5t114.5 27.5q87 0 113.5 -33t26.5 -105v-80q0 -86 2.5 -106.5t15.5 -46.5h-64
q-7 14 -13 44zM278 160v22q-30 -13 -101 -22q-50 -6 -66 -19.5t-20 -42.5q0 -26 19.5 -41.5t52.5 -15.5q115 0 115 119z" />
    <glyph glyph-name="b" unicode="b" horiz-adv-x="390" 
d="M103 44v-44h-56v502h60v-180q39 49 101 49q69 0 111.5 -51t42.5 -132q0 -90 -45.5 -143t-112.5 -53q-65 0 -101 52zM103 184q0 -142 95 -142q44 0 72.5 36.5t28.5 103.5q0 68 -28 103.5t-69 35.5q-43 0 -71 -36t-28 -101z" />
    <glyph glyph-name="c" unicode="c" horiz-adv-x="350" 
d="M282 133l61 -8q-10 -62 -50.5 -97.5t-101.5 -35.5q-76 0 -119.5 49t-43.5 140q0 90 44 140t122 50q58 0 95.5 -30t47.5 -84l-59 -10q-18 74 -83 74q-48 0 -76 -34.5t-28 -104.5t27 -105t73 -35q38 0 62 23t29 68z" />
    <glyph glyph-name="d" unicode="d" horiz-adv-x="390" 
d="M338 0h-57v47q-32 -55 -100 -55q-67 0 -112.5 53.5t-45.5 135.5q0 84 42.5 137t111.5 53q65 0 101 -50v181h60v-502zM86 181q0 -66 29 -102.5t72 -36.5q42 0 68.5 34.5t26.5 99.5q0 71 -27.5 108t-71.5 37t-70.5 -35t-26.5 -105z" />
    <glyph glyph-name="e" unicode="e" horiz-adv-x="390" 
d="M294 117l64 -7q-33 -118 -160 -118q-80 0 -126 49t-46 136q0 91 46.5 142.5t122.5 51.5q74 0 119 -50.5t45 -138.5v-16h-269q2 -58 32 -91t76 -33q69 0 96 75zM92 217h203q-5 53 -32 78.5t-67 25.5q-42 0 -71 -29t-33 -75z" />
    <glyph glyph-name="f" unicode="f" horiz-adv-x="195" 
d="M121 0h-60v315h-54v48h54v38q0 55 22 82t78 27q32 0 57 -6l-8 -55q-16 5 -36 5q-30 0 -41.5 -12t-11.5 -45v-34h73v-48h-73v-315z" />
    <glyph glyph-name="g" unicode="g" horiz-adv-x="390" 
d="M35 -29l61 -11q1 -28 23 -42.5t58 -14.5q63 0 83 31.5t20 113.5q-39 -48 -100 -48q-73 0 -115.5 52.5t-42.5 130.5q0 83 43 135.5t115 52.5q65 0 106 -51v43h57v-314q0 -106 -38.5 -151t-127.5 -45q-66 0 -104 30.5t-38 87.5zM85 188q0 -69 27.5 -103.5t71.5 -34.5
q46 0 74 34.5t28 102.5q0 63 -29.5 98.5t-72.5 35.5q-44 0 -71.5 -35t-27.5 -98z" />
    <glyph glyph-name="h" unicode="h" horiz-adv-x="390" 
d="M107 0h-60v502h60v-181q46 50 110 50q62 -5 93.5 -33.5t31.5 -94.5v-243h-62v230q0 87 -76 87q-97 0 -97 -119v-198z" />
    <glyph glyph-name="i" unicode="i" horiz-adv-x="155" 
d="M107 429h-60v73h60v-73zM107 0h-60v363h60v-363z" />
    <glyph glyph-name="j" unicode="j" horiz-adv-x="155" 
d="M107 429h-60v73h60v-73zM-33 -141l12 52q17 -4 29 -4q22 0 30.5 13.5t8.5 60.5v382h60v-383q0 -71 -22 -99t-70 -28q-28 0 -48 6z" />
    <glyph glyph-name="k" unicode="k" horiz-adv-x="350" 
d="M107 0h-60v502h60v-286l146 147h81l-139 -134l153 -229h-76l-120 187l-45 -42v-145z" />
    <glyph glyph-name="l" unicode="l" horiz-adv-x="155" 
d="M106 0h-62v502h62v-502z" />
    <glyph glyph-name="m" unicode="m" horiz-adv-x="583" 
d="M107 0h-60v363h53v-50q40 58 111 58q83 0 103 -63q44 63 112 63q112 0 112 -121v-250h-61v229q0 51 -13.5 68t-51.5 20q-40 0 -64.5 -26t-24.5 -80v-211h-62v236q0 43 -14.5 62t-49.5 19q-90 0 -90 -128v-189z" />
    <glyph glyph-name="n" unicode="n" horiz-adv-x="390" 
d="M107 0h-60v363h56v-53q37 61 114 61q69 0 97 -39t28 -109v-223h-62v222q0 95 -76 95q-43 0 -70 -28t-27 -91v-198z" />
    <glyph glyph-name="o" unicode="o" horiz-adv-x="390" 
d="M23 182q0 89 47 139t124 50q76 0 123 -49.5t47 -134.5q0 -97 -46.5 -143.5t-123.5 -51.5q-78 0 -124.5 49.5t-46.5 140.5zM86 182q0 -68 30 -104t78 -36q47 0 76.5 36.5t29.5 104.5q0 65 -29.5 101.5t-76.5 36.5q-48 0 -78 -36.5t-30 -102.5z" />
    <glyph glyph-name="p" unicode="p" horiz-adv-x="390" 
d="M107 -139h-60v502h56v-47q39 55 105 55q70 0 112 -52.5t42 -134.5q0 -84 -45.5 -138t-113.5 -54q-58 0 -96 45v-176zM103 180q0 -68 26.5 -103t68.5 -35q44 0 72.5 37t28.5 105q0 65 -28 102t-69 37q-42 0 -70.5 -38t-28.5 -105z" />
    <glyph glyph-name="q" unicode="q" horiz-adv-x="390" 
d="M338 -139h-60v179q-33 -48 -96 -48q-66 0 -111 52.5t-45 139.5q0 85 42 136t109 51t108 -56v48h53v-502zM89 182q0 -67 28 -103.5t71 -36.5q41 0 69 35t28 99q0 70 -29 108t-73 38q-41 0 -67.5 -35.5t-26.5 -104.5z" />
    <glyph glyph-name="r" unicode="r" horiz-adv-x="233" 
d="M106 0h-62v363h56v-55q35 63 80 63q31 0 63 -20l-21 -57q-26 14 -46 14q-35 0 -52.5 -33.5t-17.5 -84.5v-190z" />
    <glyph glyph-name="s" unicode="s" horiz-adv-x="350" 
d="M21 107l62 11q9 -76 93 -76q40 0 62 16.5t22 41.5q0 20 -13 30t-67 24q-88 21 -117.5 43t-29.5 69t34.5 76t98.5 29q68 0 101.5 -25t41.5 -78l-59 -7q-9 60 -81 60q-40 0 -59 -13.5t-19 -33.5q0 -25 30 -38l55 -17q43 -12 58.5 -16.5t39 -14.5t30.5 -19.5t13 -25t6 -37.5
q0 -49 -40.5 -81.5t-106.5 -32.5q-133 0 -155 115z" />
    <glyph glyph-name="t" unicode="t" horiz-adv-x="195" 
d="M181 55l8 -55q-40 -5 -47 -5q-25 0 -37.5 2.5t-25.5 13t-17.5 33.5t-4.5 62v209h-44v48h44v90l62 37v-127h62v-48h-62v-212q0 -24 4 -34t9 -11.5t22 -3.5q15 0 27 1z" />
    <glyph glyph-name="u" unicode="u" horiz-adv-x="390" 
d="M338 0h-53v54q-42 -62 -116 -62q-70 0 -97.5 39t-27.5 108v224h62v-202q0 -64 15.5 -90.5t59.5 -26.5q97 0 97 124v195h60v-363z" />
    <glyph glyph-name="v" unicode="v" horiz-adv-x="350" 
d="M204 0h-57l-139 363h67l77 -217q19 -61 23 -74l22 69l82 222h63z" />
    <glyph glyph-name="w" unicode="w" horiz-adv-x="505" 
d="M177 0h-64l-112 363h64l81 -287q0 3 17 73l59 214h63l72 -280l83 280h59l-113 -363h-64l-57 217l-14 62z" />
    <glyph glyph-name="x" unicode="x" horiz-adv-x="350" 
d="M79 0h-73l132 189l-123 174h77l55 -85q10 -19 27 -41q18 31 27 41l60 85h75l-126 -172l134 -191h-76l-93 142z" />
    <glyph glyph-name="y" unicode="y" horiz-adv-x="350" 
d="M43 -140l-7 57q28 -6 35 -6q32 0 42.5 12t31.5 62l3 15l-136 363h65l76 -210q24 -73 27 -84q11 44 24 83l78 211h62l-139 -369q-33 -85 -56 -113t-66 -28q-19 0 -40 7z" />
    <glyph glyph-name="z" unicode="z" horiz-adv-x="350" 
d="M335 0h-321v50l231 265q-27 -1 -70 -1h-147v49h295v-41l-233 -272q11 0 37 2t40 2h168v-54z" />
    <glyph glyph-name="braceleft" unicode="{" horiz-adv-x="233" 
d="M20 154v55q42 1 56 29t14 103q5 108 24 138.5t84 30.5h19v-54h-9q-37 0 -48.5 -13.5t-11.5 -56.5q0 -82 -5 -118t-18.5 -53t-47.5 -34q39 -16 55 -49t16 -104q0 -88 7.5 -104.5t52.5 -16.5h9v-54h-19q-66 0 -87 31t-21 132q0 79 -13.5 108t-56.5 30z" />
    <glyph glyph-name="bar" unicode="|" horiz-adv-x="182" 
d="M118 -147h-54v657h54v-657z" />
    <glyph glyph-name="braceright" unicode="}" horiz-adv-x="233" 
d="M215 209v-55q-44 -1 -57 -27.5t-16 -105.5q0 -105 -20 -136.5t-87 -31.5h-20v54h12q35 0 46.5 13t11.5 57q0 80 4.5 115t19 54.5t47.5 34.5q-40 21 -55.5 52.5t-15.5 102.5q0 88 -6.5 104t-51.5 16h-12v54h20q33 0 49.5 -4t31.5 -19.5t20.5 -49.5t5.5 -92
q3 -82 15.5 -108.5t57.5 -27.5z" />
    <glyph glyph-name="asciitilde" unicode="~" horiz-adv-x="408" 
d="M29 190v70q38 41 96 41q32 0 107 -29q37 -15 60 -15q49 0 87 45v-72q-43 -40 -94 -40q-24 0 -40 5q-5 2 -32.5 13.5t-53 20t-40.5 8.5q-23 0 -42 -9.5t-48 -37.5z" />
    <glyph glyph-name="exclamdown" unicode="&#xa1;" horiz-adv-x="233" 
d="M83 363h70v-70h-70v70zM97 238h41l17 -265v-112h-76v112z" />
    <glyph glyph-name="cent" unicode="&#xa2;" horiz-adv-x="390" 
d="M254 306l-77 -263q14 -2 21 -2q37 0 63.5 25t31.5 67l59 -7q-11 -63 -52 -99t-99 -36q-20 0 -35 4l-41 -135l-39 12l40 135q-90 45 -90 183q0 84 48 132.5t113 48.5l35 -2l39 133l37 -12l-37 -132q61 -29 77 -101l-61 -10q-9 41 -33 59zM141 61l77 260q-7 1 -16 1
q-46 0 -74.5 -37t-28.5 -102q0 -89 42 -122z" />
    <glyph glyph-name="sterling" unicode="&#xa3;" horiz-adv-x="390" 
d="M135 278h109v-53h-98q7 -21 7 -29q0 -66 -62 -131q27 7 50 7q26 0 82.5 -11t61.5 -11q23 0 65 20l20 -57q-48 -21 -83 -21q-11 0 -29 2q-36 7 -60 13t-30.5 9t-14 4.5t-18.5 1.5q-56 0 -102 -31l-24 58q80 41 80 134q0 14 -6 42h-68v53h53q-18 53 -18 88q0 64 44 104
t111 40q62 0 102 -34.5t50 -96.5l-62 -8q-4 41 -29.5 65t-61.5 24q-37 0 -62 -25t-25 -59t18 -98z" />
    <glyph glyph-name="currency" unicode="&#xa4;" horiz-adv-x="390" 
d="M72 329l-46 47l38 39l48 -46q35 24 82 24q46 0 80 -24l48 46l40 -39l-48 -47q23 -40 23 -82q0 -44 -23 -79l48 -48l-40 -41l-48 49q-34 -24 -80 -24q-48 0 -82 24l-48 -49l-38 41l46 48q-23 35 -23 79q0 42 23 82zM104 247q0 -36 26.5 -61.5t63.5 -25.5t62 25t25 62
t-25 63t-62 26t-63.5 -26t-26.5 -63z" />
    <glyph glyph-name="yen" unicode="&#xa5;" horiz-adv-x="390" 
d="M224 0h-62v111h-141v48h141v49h-141v50h117l-139 244h69l99 -178q23 -48 24 -52l123 230h73l-137 -244h115v-50h-141v-49h141v-48h-141v-111z" />
    <glyph glyph-name="brokenbar" unicode="&#xa6;" horiz-adv-x="182" 
d="M64 510h54v-271h-54v271zM64 124h54v-271h-54v271z" />
    <glyph glyph-name="section" unicode="&#xa7;" horiz-adv-x="390" 
d="M49 -23l62 8q18 -81 86 -81q34 0 54.5 17t20.5 43q0 23 -26.5 47t-100.5 68q-68 42 -92.5 69.5t-24.5 70.5q0 35 20.5 61t56.5 36q-44 43 -44 85q0 45 34.5 77t88.5 32q127 0 144 -119l-63 -6q-8 41 -26 58t-49 17q-30 0 -50 -16.5t-20 -38.5q0 -23 21 -42t97 -67
q73 -44 96 -70.5t23 -66.5q0 -34 -16.5 -57t-60.5 -41q55 -42 55 -96q0 -48 -40 -80t-97 -32q-65 0 -103.5 32t-45.5 92zM250 84q23 12 36.5 29.5t13.5 33.5q0 22 -24 44t-72 53t-70 49q-50 -28 -50 -67q0 -14 8 -27.5t26.5 -28t34 -25t47 -30t50.5 -31.5z" />
    <glyph glyph-name="dieresis" unicode="&#xa8;" horiz-adv-x="233" 
d="M85 434h-64v70h64v-70zM212 434h-64v70h64v-70z" />
    <glyph glyph-name="copyright" unicode="&#xa9;" horiz-adv-x="516" 
d="M259 510h9q95 0 172 -76t77 -173v-21q0 -95 -76 -170.5t-173 -75.5h-21q-96 0 -171 76t-75 174v17q0 97 77 173t172 76h9zM259 467h-8q-79 0 -143.5 -64t-64.5 -145q0 -87 61 -154.5t148 -67.5t155 61t68 148t-61.5 154.5t-146.5 67.5h-8zM342 210l42 -13
q-10 -42 -44 -67.5t-81 -25.5q-60 0 -97 40t-37 107q0 68 37 107t99 39q93 0 118 -81l-42 -9q-20 51 -77 51q-40 0 -65 -28t-25 -80q0 -51 23.5 -78t64.5 -27q31 0 53.5 17t30.5 48z" />
    <glyph glyph-name="ordfeminine" unicode="&#xaa;" horiz-adv-x="259" 
d="M188 292q-43 -38 -89 -38q-37 0 -60.5 21.5t-23.5 54.5q0 48 50 67l117 21q0 29 -11.5 40t-42.5 11q-48 0 -56 -42l-46 12q3 31 30 51t75 20q101 0 101 -83l-1 -104q0 -43 14 -62h-50q-7 14 -7 31zM182 378q-10 -4 -43.5 -10t-52 -14.5t-18.5 -23.5q0 -14 12 -24.5
t32 -10.5q70 0 70 83z" />
    <glyph glyph-name="guillemotleft" unicode="&#xab;" horiz-adv-x="390" 
d="M205 336l-88 -155l87 -155h-49l-108 155l108 155h50zM338 336l-91 -155l91 -155h-51l-107 155l107 155h51z" />
    <glyph glyph-name="logicalnot" unicode="&#xac;" horiz-adv-x="408" 
d="M370 351v-205h-57v148h-273v57h330z" />
    <glyph glyph-name="registered" unicode="&#xae;" horiz-adv-x="516" 
d="M259 510h9q95 0 172 -76t77 -173v-21q0 -95 -76 -170.5t-173 -75.5h-21q-96 0 -171 76t-75 174v17q0 97 77 173t172 76h9zM259 467h-8q-79 0 -143.5 -64t-64.5 -145q0 -87 61 -154.5t148 -67.5t155 61t68 148t-61.5 154.5t-146.5 67.5h-8zM190 110h-44v276h106
q59 0 81.5 -19t25.5 -57q0 -30 -22 -52.5t-57 -24.5q19 -8 33 -23t32 -47l34 -53h-55l-24 43q-30 49 -43.5 61t-39.5 12h-27v-116zM190 349v-84h55q68 0 68 43q0 21 -15 31t-55 10h-53z" />
    <glyph glyph-name="overscore" unicode="&#xaf;" horiz-adv-x="386" 
d="M398 534h-410v46h410v-46z" />
    <glyph glyph-name="degree" unicode="&#xb0;" horiz-adv-x="280" 
d="M43 414q0 40 28 68t68 28q38 0 66 -28t28 -68q0 -38 -28 -65.5t-66 -27.5q-40 0 -68 27.5t-28 65.5zM82 414q0 -24 16.5 -40.5t40.5 -16.5q23 0 40 17t17 40q0 25 -17 42.5t-40 17.5q-24 0 -40.5 -17.5t-16.5 -42.5z" />
    <glyph glyph-name="plusminus" unicode="&#xb1;" horiz-adv-x="384" 
d="M222 89h-60v137h-135v59h135v135h60v-135h135v-59h-135v-137zM357 57v-57h-330v57h330z" />
    <glyph glyph-name="twosuperior" unicode="&#xb2;" horiz-adv-x="233" 
d="M222 251h-214q6 44 88 104q52 38 61.5 48t9.5 26q0 17 -12 27.5t-36 10.5q-22 0 -33 -8.5t-18 -30.5l-53 6q10 38 34.5 55t70.5 17q49 0 74 -18.5t25 -48.5q0 -28 -14 -46t-52 -47t-63 -54h132v-41z" />
    <glyph glyph-name="threesuperior" unicode="&#xb3;" horiz-adv-x="233" 
d="M12 317l50 5q11 -37 51 -37q25 0 40 12.5t15 32.5q0 36 -55 36h-20l10 39q52 0 52 34q0 30 -41 30q-19 0 -29.5 -7.5t-19.5 -27.5l-49 8q14 36 36 50t62 14q48 0 71.5 -17.5t23.5 -45.5q0 -43 -48 -53q61 -18 61 -67q0 -33 -28.5 -55.5t-76.5 -22.5q-91 0 -105 72z" />
    <glyph glyph-name="acute" unicode="&#xb4;" horiz-adv-x="233" 
d="M127 408h-51l45 96h81z" />
    <glyph glyph-name="mu1" unicode="&#xb5;" horiz-adv-x="404" 
d="M287 363h62v-363h-56v43q-32 -51 -91 -51q-27 0 -46 8.5t-39 35.5v-175h-62v502h62v-154q0 -96 17.5 -128.5t63.5 -32.5q31 0 49 14q26 16 33 39.5t7 107.5v154z" />
    <glyph glyph-name="paragraph" unicode="&#xb6;" horiz-adv-x="377" 
d="M195 -139h-56v357q-63 4 -101 42t-38 97q0 68 42 106.5t120 38.5h216v-60h-49v-581h-57v581h-77v-581z" />
    <glyph glyph-name="middot" unicode="&#xb7;" horiz-adv-x="195" 
d="M133 211h-70v70h70v-70z" />
    <glyph glyph-name="middot" unicode="&#x2219;" horiz-adv-x="195" 
d="M133 211h-70v70h70v-70z" />
    <glyph glyph-name="cedilla" unicode="&#xb8;" horiz-adv-x="233" 
d="M75 -54l16 62h47l-12 -37q28 -4 43 -17.5t15 -31.5q0 -28 -25.5 -47.5t-73.5 -19.5q-14 0 -49 5l5 41q14 -1 31 -1q55 0 55 24q0 22 -52 22z" />
    <glyph glyph-name="onesuperior" unicode="&#xb9;" horiz-adv-x="233" 
d="M162 251h-49v189q-34 -28 -77 -39v42q59 23 90 63h36v-255z" />
    <glyph glyph-name="ordmasculine" unicode="&#xba;" horiz-adv-x="257" 
d="M127 510q51 0 81.5 -35t30.5 -95q0 -59 -30.5 -93t-81.5 -34q-50 0 -81 34t-31 92q0 61 31 96t81 35zM127 464q-62 0 -62 -84q0 -41 17 -61t45 -20q62 0 62 84q0 40 -17 60.5t-45 20.5z" />
    <glyph glyph-name="guillemotright" unicode="&#xbb;" horiz-adv-x="390" 
d="M182 26l89 155l-90 155h51l109 -155l-109 -155h-50zM48 26l91 155l-91 155h51l109 -155l-109 -155h-51z" />
    <glyph glyph-name="onequarter" unicode="&#xbc;" horiz-adv-x="583" 
d="M140 -20h-54l377 530h54zM162 251h-49v189q-34 -28 -77 -39v42q59 23 90 63h36v-255zM538 -12h-49v54h-131v42l138 162h42v-168h36v-36h-36v-54zM411 78h78v91z" />
    <glyph glyph-name="onehalf" unicode="&#xbd;" horiz-adv-x="583" 
d="M132 -20h-54l376 530h55zM162 251h-49v189q-34 -28 -77 -39v42q59 23 90 63h36v-255zM572 -12h-214q7 47 88 104q51 39 61 50t10 26q0 37 -48 37q-22 0 -33 -8t-18 -30l-53 6q10 38 34.5 55.5t70.5 17.5q50 0 74.5 -19t24.5 -51q0 -27 -13.5 -44t-51.5 -46.5t-64 -55.5
h132v-42z" />
    <glyph glyph-name="threequarters" unicode="&#xbe;" horiz-adv-x="583" 
d="M140 -20h-54l376 530h55zM12 317l50 5q11 -37 51 -37q25 0 40 12.5t15 32.5q0 36 -54 36h-21l10 39q52 0 52 34q0 30 -41 30q-19 0 -29.5 -7.5t-19.5 -27.5l-49 8q14 36 36 50t62 14q48 0 71.5 -17.5t23.5 -45.5q0 -43 -48 -53q61 -18 61 -67q0 -33 -28.5 -55.5
t-76.5 -22.5q-91 0 -105 72zM538 -12h-49v54h-131v42l138 162h42v-168h36v-36h-36v-54zM411 78h78v91z" />
    <glyph glyph-name="questiondown" unicode="&#xbf;" horiz-adv-x="427" 
d="M181 363h70v-70h-70v70zM188 239h58v-16q0 -49 -8 -67q-13 -31 -70 -80q-31 -28 -40.5 -44.5t-9.5 -37.5q0 -37 28 -64t69 -27q39 0 65 26t34 77l63 -7q-9 -71 -50.5 -108.5t-110.5 -37.5q-73 0 -117 39.5t-44 98.5q0 34 14.5 60t58.5 67q13 11 20 17.5t13.5 12.5t9.5 12
t6 10t4.5 13t2 13.5t2 19t2.5 23.5z" />
    <glyph glyph-name="Agrave" unicode="&#xc0;" horiz-adv-x="467" 
d="M70 0h-71l192 502h73l204 -502h-76l-57 152h-210zM198 352l-53 -147h169l-53 139q-34 96 -36 104q-24 -87 -27 -96zM237 628l47 -96h-50l-80 96h83z" />
    <glyph glyph-name="Aacute" unicode="&#xc1;" horiz-adv-x="467" 
d="M70 0h-71l192 502h73l204 -502h-76l-57 152h-210zM198 352l-53 -147h169l-53 139q-34 96 -36 104q-24 -87 -27 -96zM237 532h-51l45 96h81z" />
    <glyph glyph-name="Acircumflex" unicode="&#xc2;" horiz-adv-x="467" 
d="M70 0h-71l192 502h73l204 -502h-76l-57 152h-210zM198 352l-53 -147h169l-53 139q-34 96 -36 104q-24 -87 -27 -96zM265 532l-37 59l-40 -59h-70l75 96h65l77 -96h-70z" />
    <glyph glyph-name="Atilde" unicode="&#xc3;" horiz-adv-x="467" 
d="M70 0h-71l192 502h73l204 -502h-76l-57 152h-210zM198 352l-53 -147h169l-53 139q-34 96 -36 104q-24 -87 -27 -96zM165 532h-46v4q0 30 20.5 51.5t48.5 21.5q9 0 44.5 -14t45.5 -14q12 0 18 5.5t8 23.5h44q-1 -39 -19 -58.5t-49 -19.5q-9 0 -45 15.5t-43 15.5
q-27 0 -27 -31z" />
    <glyph glyph-name="Adieresis" unicode="&#xc4;" horiz-adv-x="467" 
d="M70 0h-71l192 502h73l204 -502h-76l-57 152h-210zM198 352l-53 -147h169l-53 139q-34 96 -36 104q-24 -87 -27 -96zM195 532h-64v70h64v-70zM322 532h-64v70h64v-70z" />
    <glyph glyph-name="Aring" unicode="&#xc5;" horiz-adv-x="467" 
d="M70 0h-71l192 502h73l204 -502h-76l-57 152h-210zM198 352l-53 -147h169l-53 139q-34 96 -36 104q-24 -87 -27 -96zM166 547q0 25 18 43t43 18q26 0 43 -18t17 -44t-17 -44.5t-42 -18.5q-26 0 -44 18t-18 46zM192 546q0 -16 10 -26.5t26 -10.5q13 0 24.5 11t11.5 26
q0 16 -10.5 27.5t-25.5 11.5t-25.5 -11.5t-10.5 -27.5z" />
    <glyph glyph-name="AE" unicode="&#xc6;" horiz-adv-x="700" 
d="M72 0h-72l240 502h412v-60h-252v-154h235v-58h-235v-172h263v-58h-328v145h-195zM285 442l-117 -239h167v239h-50z" />
    <glyph glyph-name="Ccedilla" unicode="&#xc7;" horiz-adv-x="505" 
d="M412 175l65 -15q-42 -168 -218 -168q-109 0 -165.5 74t-58.5 188q0 118 66 187t171 69q74 0 125.5 -38.5t71.5 -107.5l-64 -15q-36 104 -134 104q-86 0 -126.5 -56.5t-40.5 -142.5q0 -97 43 -151.5t118 -54.5q56 0 94.5 32.5t52.5 94.5zM214 -54l16 62h47l-12 -37
q28 -4 43 -17.5t15 -31.5q0 -28 -25.5 -47.5t-73.5 -19.5q-14 0 -49 5l5 41q14 -1 31 -1q55 0 55 24q0 22 -52 22z" />
    <glyph glyph-name="Egrave" unicode="&#xc8;" horiz-adv-x="467" 
d="M429 0h-373v502h362v-60h-297v-154h278v-58h-278v-172h308v-58zM245 628l47 -96h-50l-80 96h83z" />
    <glyph glyph-name="Eacute" unicode="&#xc9;" horiz-adv-x="467" 
d="M429 0h-373v502h362v-60h-297v-154h278v-58h-278v-172h308v-58zM244 532h-51l45 96h81z" />
    <glyph glyph-name="Ecircumflex" unicode="&#xca;" horiz-adv-x="467" 
d="M429 0h-373v502h362v-60h-297v-154h278v-58h-278v-172h308v-58zM280 532l-37 59l-40 -59h-70l75 96h65l77 -96h-70z" />
    <glyph glyph-name="Edieresis" unicode="&#xcb;" horiz-adv-x="467" 
d="M429 0h-373v502h362v-60h-297v-154h278v-58h-278v-172h308v-58zM210 532h-64v70h64v-70zM337 532h-64v70h64v-70z" />
    <glyph glyph-name="Igrave" unicode="&#xcc;" horiz-adv-x="195" 
d="M132 0h-67v502h67v-502zM100 628l47 -96h-50l-80 96h83z" />
    <glyph glyph-name="Iacute" unicode="&#xcd;" horiz-adv-x="195" 
d="M132 0h-67v502h67v-502zM99 532h-51l45 96h81z" />
    <glyph glyph-name="Icircumflex" unicode="&#xce;" horiz-adv-x="195" 
d="M132 0h-67v502h67v-502zM135 532l-37 59l-40 -59h-70l75 96h65l77 -96h-70z" />
    <glyph glyph-name="Idieresis" unicode="&#xcf;" horiz-adv-x="195" 
d="M132 0h-67v502h67v-502zM65 532h-64v70h64v-70zM192 532h-64v70h64v-70z" />
    <glyph glyph-name="Eth" unicode="&#xd0;" horiz-adv-x="505" 
d="M236 0h-181v229h-56v44h56v229h171q242 0 242 -249q0 -253 -232 -253zM120 229v-171h106q101 0 137.5 47.5t36.5 147.5q0 104 -40 146.5t-135 42.5h-105v-169h139v-44h-139z" />
    <glyph glyph-name="Ntilde" unicode="&#xd1;" horiz-adv-x="505" 
d="M117 0h-63v502h67l264 -395v395h63v-502h-69l-262 393v-393zM193 532h-46v4q0 30 20.5 51.5t48.5 21.5q9 0 44.5 -14t45.5 -14q12 0 18 5.5t8 23.5h44q-1 -39 -19 -58.5t-49 -19.5q-9 0 -45 15.5t-43 15.5q-27 0 -27 -31z" />
    <glyph glyph-name="Ograve" unicode="&#xd2;" horiz-adv-x="545" 
d="M34 244q0 123 66 194.5t174 71.5q111 0 174.5 -75t63.5 -197q0 -107 -67.5 -176.5t-164.5 -69.5q-109 0 -177.5 72.5t-68.5 179.5zM103 244q0 -90 47.5 -143t122.5 -53q77 0 125 54t48 149q0 91 -47.5 146.5t-124.5 55.5q-74 0 -122.5 -51t-48.5 -158zM267 628l47 -96
h-50l-80 96h83z" />
    <glyph glyph-name="Oacute" unicode="&#xd3;" horiz-adv-x="545" 
d="M34 244q0 123 66 194.5t174 71.5q111 0 174.5 -75t63.5 -197q0 -107 -67.5 -176.5t-164.5 -69.5q-109 0 -177.5 72.5t-68.5 179.5zM103 244q0 -90 47.5 -143t122.5 -53q77 0 125 54t48 149q0 91 -47.5 146.5t-124.5 55.5q-74 0 -122.5 -51t-48.5 -158zM282 532h-51l45 96
h81z" />
    <glyph glyph-name="Ocircumflex" unicode="&#xd4;" horiz-adv-x="545" 
d="M34 244q0 123 66 194.5t174 71.5q111 0 174.5 -75t63.5 -197q0 -107 -67.5 -176.5t-164.5 -69.5q-109 0 -177.5 72.5t-68.5 179.5zM103 244q0 -90 47.5 -143t122.5 -53q77 0 125 54t48 149q0 91 -47.5 146.5t-124.5 55.5q-74 0 -122.5 -51t-48.5 -158zM310 532l-37 59
l-40 -59h-70l75 96h65l77 -96h-70z" />
    <glyph glyph-name="Otilde" unicode="&#xd5;" horiz-adv-x="545" 
d="M34 244q0 123 66 194.5t174 71.5q111 0 174.5 -75t63.5 -197q0 -107 -67.5 -176.5t-164.5 -69.5q-109 0 -177.5 72.5t-68.5 179.5zM103 244q0 -90 47.5 -143t122.5 -53q77 0 125 54t48 149q0 91 -47.5 146.5t-124.5 55.5q-74 0 -122.5 -51t-48.5 -158zM204 532h-46v4
q0 30 20.5 51.5t48.5 21.5q9 0 44.5 -14t45.5 -14q12 0 18 5.5t8 23.5h44q-1 -39 -19 -58.5t-49 -19.5q-9 0 -45 15.5t-43 15.5q-27 0 -27 -31z" />
    <glyph glyph-name="Odieresis" unicode="&#xd6;" horiz-adv-x="545" 
d="M34 244q0 123 66 194.5t174 71.5q111 0 174.5 -75t63.5 -197q0 -107 -67.5 -176.5t-164.5 -69.5q-109 0 -177.5 72.5t-68.5 179.5zM103 244q0 -90 47.5 -143t122.5 -53q77 0 125 54t48 149q0 91 -47.5 146.5t-124.5 55.5q-74 0 -122.5 -51t-48.5 -158zM240 532h-64v70h64
v-70zM367 532h-64v70h64v-70z" />
    <glyph glyph-name="multiply" unicode="&#xd7;" horiz-adv-x="408" 
d="M97 98l-42 42l107 107l-106 108l41 42l107 -108l106 108l42 -42l-106 -108l106 -107l-42 -41l-106 106z" />
    <glyph glyph-name="Oslash" unicode="&#xd8;" horiz-adv-x="545" 
d="M427 455l57 64l34 -28l-61 -69q34 -51 44 -88t10 -95q0 -108 -67.5 -177.5t-162.5 -69.5q-51 0 -83.5 9.5t-78.5 41.5l-57 -63l-34 28l61 68q-34 51 -45 86.5t-11 87.5q0 117 67.5 188.5t172.5 71.5q86 0 154 -55zM132 124l254 284q-33 26 -56.5 35.5t-56.5 9.5
q-77 0 -125 -52.5t-48 -149.5q0 -39 6 -65t26 -62zM414 373l-253 -283q49 -42 111 -42q75 0 123 54t48 145q0 74 -29 126z" />
    <glyph glyph-name="Ugrave" unicode="&#xd9;" horiz-adv-x="505" 
d="M383 211v291h66v-291q0 -111 -43 -162.5t-153 -56.5q-106 0 -152 51.5t-46 167.5v291h66v-291q0 -91 27.5 -123t98.5 -37q75 0 105.5 34t30.5 126zM246 628l47 -96h-50l-80 96h83z" />
    <glyph glyph-name="Uacute" unicode="&#xda;" horiz-adv-x="505" 
d="M383 211v291h66v-291q0 -111 -43 -162.5t-153 -56.5q-106 0 -152 51.5t-46 167.5v291h66v-291q0 -91 27.5 -123t98.5 -37q75 0 105.5 34t30.5 126zM261 532h-51l45 96h81z" />
    <glyph glyph-name="Ucircumflex" unicode="&#xdb;" horiz-adv-x="505" 
d="M383 211v291h66v-291q0 -111 -43 -162.5t-153 -56.5q-106 0 -152 51.5t-46 167.5v291h66v-291q0 -91 27.5 -123t98.5 -37q75 0 105.5 34t30.5 126zM289 532l-37 59l-40 -59h-70l75 96h65l77 -96h-70z" />
    <glyph glyph-name="Udieresis" unicode="&#xdc;" horiz-adv-x="505" 
d="M383 211v291h66v-291q0 -111 -43 -162.5t-153 -56.5q-106 0 -152 51.5t-46 167.5v291h66v-291q0 -91 27.5 -123t98.5 -37q75 0 105.5 34t30.5 126zM219 532h-64v70h64v-70zM346 532h-64v70h64v-70z" />
    <glyph glyph-name="Yacute" unicode="&#xdd;" horiz-adv-x="467" 
d="M261 0h-66v212l-194 290h82l99 -152q25 -37 50 -85q16 28 55 90l97 147h78l-201 -290v-212zM240 532h-51l45 96h81z" />
    <glyph glyph-name="Thorn" unicode="&#xde;" horiz-adv-x="467" 
d="M120 0h-65v502h65v-103h124q94 0 143 -33.5t49 -112.5q0 -150 -186 -150h-130v-103zM120 341v-180h130q119 0 119 91q0 48 -30 68.5t-92 20.5h-127z" />
    <glyph glyph-name="germandbls" unicode="&#xdf;" horiz-adv-x="427" 
d="M113 0h-62v355q0 80 37 115t110 40q58 0 92 -29t34 -69q0 -14 -13 -47.5t-25.5 -61.5t-12.5 -30v-5q0 -11 9 -20.5t40 -29.5q52 -36 68 -57.5t16 -54.5q0 -48 -35 -81t-90 -33q-84 0 -125 83l54 23q30 -56 70 -56q26 0 44.5 18t18.5 43q0 18 -7.5 28t-41.5 32
q-55 38 -69.5 57.5t-14.5 43.5q0 27 27 70q28 47 28 72q0 22 -19 38t-49 16q-41 0 -62.5 -25.5t-21.5 -96.5v-338z" />
    <glyph glyph-name="agrave" unicode="&#xe0;" horiz-adv-x="390" 
d="M282 44q-60 -52 -133 -52q-58 0 -90.5 28.5t-32.5 75.5q0 36 18.5 60t50 35.5t62.5 17t67.5 11t53.5 11.5l1 15q0 75 -89 75q-42 0 -62.5 -15.5t-30.5 -54.5l-61 8q11 57 50.5 84.5t114.5 27.5q87 0 113.5 -33t26.5 -105v-80q0 -86 2.5 -106.5t15.5 -46.5h-64
q-7 14 -13 44zM278 160v22q-30 -13 -101 -22q-50 -6 -66 -19.5t-20 -42.5q0 -26 19.5 -41.5t52.5 -15.5q115 0 115 119zM198 504l47 -96h-50l-80 96h83z" />
    <glyph glyph-name="aacute" unicode="&#xe1;" horiz-adv-x="390" 
d="M282 44q-60 -52 -133 -52q-58 0 -90.5 28.5t-32.5 75.5q0 36 18.5 60t50 35.5t62.5 17t67.5 11t53.5 11.5l1 15q0 75 -89 75q-42 0 -62.5 -15.5t-30.5 -54.5l-61 8q11 57 50.5 84.5t114.5 27.5q87 0 113.5 -33t26.5 -105v-80q0 -86 2.5 -106.5t15.5 -46.5h-64
q-7 14 -13 44zM278 160v22q-30 -13 -101 -22q-50 -6 -66 -19.5t-20 -42.5q0 -26 19.5 -41.5t52.5 -15.5q115 0 115 119zM210 408h-51l45 96h81z" />
    <glyph glyph-name="acircumflex" unicode="&#xe2;" horiz-adv-x="390" 
d="M282 44q-60 -52 -133 -52q-58 0 -90.5 28.5t-32.5 75.5q0 36 18.5 60t50 35.5t62.5 17t67.5 11t53.5 11.5l1 15q0 75 -89 75q-42 0 -62.5 -15.5t-30.5 -54.5l-61 8q11 57 50.5 84.5t114.5 27.5q87 0 113.5 -33t26.5 -105v-80q0 -86 2.5 -106.5t15.5 -46.5h-64
q-7 14 -13 44zM278 160v22q-30 -13 -101 -22q-50 -6 -66 -19.5t-20 -42.5q0 -26 19.5 -41.5t52.5 -15.5q115 0 115 119zM231 408l-37 59l-40 -59h-70l75 96h65l77 -96h-70z" />
    <glyph glyph-name="atilde" unicode="&#xe3;" horiz-adv-x="390" 
d="M282 44q-60 -52 -133 -52q-58 0 -90.5 28.5t-32.5 75.5q0 36 18.5 60t50 35.5t62.5 17t67.5 11t53.5 11.5l1 15q0 75 -89 75q-42 0 -62.5 -15.5t-30.5 -54.5l-61 8q11 57 50.5 84.5t114.5 27.5q87 0 113.5 -33t26.5 -105v-80q0 -86 2.5 -106.5t15.5 -46.5h-64
q-7 14 -13 44zM278 160v22q-30 -13 -101 -22q-50 -6 -66 -19.5t-20 -42.5q0 -26 19.5 -41.5t52.5 -15.5q115 0 115 119zM124 418h-46v4q0 30 20.5 51.5t48.5 21.5q9 0 44.5 -14t45.5 -14q12 0 18 5.5t8 23.5h44q-1 -39 -19 -58.5t-49 -19.5q-9 0 -45 15.5t-43 15.5
q-27 0 -27 -31z" />
    <glyph glyph-name="adieresis" unicode="&#xe4;" horiz-adv-x="390" 
d="M282 44q-60 -52 -133 -52q-58 0 -90.5 28.5t-32.5 75.5q0 36 18.5 60t50 35.5t62.5 17t67.5 11t53.5 11.5l1 15q0 75 -89 75q-42 0 -62.5 -15.5t-30.5 -54.5l-61 8q11 57 50.5 84.5t114.5 27.5q87 0 113.5 -33t26.5 -105v-80q0 -86 2.5 -106.5t15.5 -46.5h-64
q-7 14 -13 44zM278 160v22q-30 -13 -101 -22q-50 -6 -66 -19.5t-20 -42.5q0 -26 19.5 -41.5t52.5 -15.5q115 0 115 119zM161 434h-64v70h64v-70zM288 434h-64v70h64v-70z" />
    <glyph glyph-name="aring" unicode="&#xe5;" horiz-adv-x="390" 
d="M282 44q-60 -52 -133 -52q-58 0 -90.5 28.5t-32.5 75.5q0 36 18.5 60t50 35.5t62.5 17t67.5 11t53.5 11.5l1 15q0 75 -89 75q-42 0 -62.5 -15.5t-30.5 -54.5l-61 8q11 57 50.5 84.5t114.5 27.5q87 0 113.5 -33t26.5 -105v-80q0 -86 2.5 -106.5t15.5 -46.5h-64
q-7 14 -13 44zM278 160v22q-30 -13 -101 -22q-50 -6 -66 -19.5t-20 -42.5q0 -26 19.5 -41.5t52.5 -15.5q115 0 115 119zM132 457q0 25 18 43t43 18q26 0 43 -18t17 -44t-17 -44.5t-42 -18.5q-26 0 -44 18t-18 46zM158 456q0 -16 10 -26.5t26 -10.5q13 0 24.5 11t11.5 26
q0 16 -10.5 27.5t-25.5 11.5t-25.5 -11.5t-10.5 -27.5z" />
    <glyph glyph-name="ae" unicode="&#xe6;" horiz-adv-x="623" 
d="M527 119l66 -8q-38 -119 -160 -119q-86 0 -134 66q-73 -66 -152 -66q-57 0 -90.5 29.5t-33.5 74.5q0 48 35.5 76t124.5 39q48 7 88 18v14q0 43 -18 60.5t-64 17.5q-47 0 -67 -14.5t-30 -55.5l-58 7q13 58 50 85.5t106 27.5q97 0 126 -49q42 49 117 49q79 0 120 -54.5
t41 -129.5v-21h-263q0 -65 25 -91.5t79 -32.5q36 0 60.5 20.5t31.5 56.5zM331 217h200q-9 104 -98 104q-43 0 -70.5 -28t-31.5 -76zM272 182q-23 -8 -111 -26q-41 -6 -56.5 -20t-15.5 -38q0 -26 18.5 -41.5t52.5 -15.5q63 0 87.5 34t24.5 107z" />
    <glyph glyph-name="ccedilla" unicode="&#xe7;" horiz-adv-x="350" 
d="M282 133l61 -8q-10 -62 -50.5 -97.5t-101.5 -35.5q-76 0 -119.5 49t-43.5 140q0 90 44 140t122 50q58 0 95.5 -30t47.5 -84l-59 -10q-18 74 -83 74q-48 0 -76 -34.5t-28 -104.5t27 -105t73 -35q38 0 62 23t29 68zM143 -47l16 62h47l-12 -37q28 -4 43 -17.5t15 -31.5
q0 -28 -25.5 -47.5t-73.5 -19.5q-14 0 -49 5l5 41q14 -1 31 -1q55 0 55 24q0 22 -52 22z" />
    <glyph glyph-name="egrave" unicode="&#xe8;" horiz-adv-x="390" 
d="M294 117l64 -7q-33 -118 -160 -118q-80 0 -126 49t-46 136q0 91 46.5 142.5t122.5 51.5q74 0 119 -50.5t45 -138.5v-16h-269q2 -58 32 -91t76 -33q69 0 96 75zM92 217h203q-5 53 -32 78.5t-67 25.5q-42 0 -71 -29t-33 -75zM189 504l47 -96h-50l-80 96h83z" />
    <glyph glyph-name="eacute" unicode="&#xe9;" horiz-adv-x="390" 
d="M294 117l64 -7q-33 -118 -160 -118q-80 0 -126 49t-46 136q0 91 46.5 142.5t122.5 51.5q74 0 119 -50.5t45 -138.5v-16h-269q2 -58 32 -91t76 -33q69 0 96 75zM92 217h203q-5 53 -32 78.5t-67 25.5q-42 0 -71 -29t-33 -75zM210 408h-51l45 96h81z" />
    <glyph glyph-name="ecircumflex" unicode="&#xea;" horiz-adv-x="390" 
d="M294 117l64 -7q-33 -118 -160 -118q-80 0 -126 49t-46 136q0 91 46.5 142.5t122.5 51.5q74 0 119 -50.5t45 -138.5v-16h-269q2 -58 32 -91t76 -33q69 0 96 75zM92 217h203q-5 53 -32 78.5t-67 25.5q-42 0 -71 -29t-33 -75zM231 408l-37 59l-40 -59h-70l75 96h65l77 -96
h-70z" />
    <glyph glyph-name="edieresis" unicode="&#xeb;" horiz-adv-x="390" 
d="M294 117l64 -7q-33 -118 -160 -118q-80 0 -126 49t-46 136q0 91 46.5 142.5t122.5 51.5q74 0 119 -50.5t45 -138.5v-16h-269q2 -58 32 -91t76 -33q69 0 96 75zM92 217h203q-5 53 -32 78.5t-67 25.5q-42 0 -71 -29t-33 -75zM161 434h-64v70h64v-70zM288 434h-64v70h64v-70
z" />
    <glyph glyph-name="igrave" unicode="&#xec;" horiz-adv-x="195" 
d="M128 0h-60v363h60v-363zM94 504l47 -96h-50l-80 96h83z" />
    <glyph glyph-name="iacute" unicode="&#xed;" horiz-adv-x="195" 
d="M128 0h-60v363h60v-363zM115 408h-51l45 96h81z" />
    <glyph glyph-name="icircumflex" unicode="&#xee;" horiz-adv-x="195" 
d="M128 0h-60v363h60v-363zM141 408l-37 59l-40 -59h-70l75 96h65l77 -96h-70z" />
    <glyph glyph-name="idieresis" unicode="&#xef;" horiz-adv-x="195" 
d="M128 0h-60v363h60v-363zM66 434h-64v70h64v-70zM193 434h-64v70h64v-70z" />
    <glyph glyph-name="eth" unicode="&#xf0;" horiz-adv-x="390" 
d="M105 502h75q3 -2 19 -15.5t24 -19.5l72 35l15 -35l-58 -28q110 -128 110 -262q0 -84 -47.5 -134.5t-120.5 -50.5q-75 0 -121.5 47.5t-46.5 136.5q0 87 43 137t111 50q33 0 72 -20q-14 29 -49 72l-93 -43l-17 35l83 39q-26 25 -71 56zM296 181q0 64 -29.5 99.5t-76.5 35.5
q-46 0 -73.5 -35.5t-27.5 -105.5q0 -65 28 -99t74 -34q47 0 76 36.5t29 102.5z" />
    <glyph glyph-name="ntilde" unicode="&#xf1;" horiz-adv-x="390" 
d="M107 0h-60v363h56v-53q37 61 114 61q69 0 97 -39t28 -109v-223h-62v222q0 95 -76 95q-43 0 -70 -28t-27 -91v-198zM134 418h-46v4q0 30 20.5 51.5t48.5 21.5q9 0 44.5 -14t45.5 -14q12 0 18 5.5t8 23.5h44q-1 -39 -19 -58.5t-49 -19.5q-9 0 -45 15.5t-43 15.5
q-27 0 -27 -31z" />
    <glyph glyph-name="ograve" unicode="&#xf2;" horiz-adv-x="390" 
d="M23 182q0 89 47 139t124 50q76 0 123 -49.5t47 -134.5q0 -97 -46.5 -143.5t-123.5 -51.5q-78 0 -124.5 49.5t-46.5 140.5zM86 182q0 -68 30 -104t78 -36q47 0 76.5 36.5t29.5 104.5q0 65 -29.5 101.5t-76.5 36.5q-48 0 -78 -36.5t-30 -102.5zM189 504l47 -96h-50l-80 96
h83z" />
    <glyph glyph-name="oacute" unicode="&#xf3;" horiz-adv-x="390" 
d="M23 182q0 89 47 139t124 50q76 0 123 -49.5t47 -134.5q0 -97 -46.5 -143.5t-123.5 -51.5q-78 0 -124.5 49.5t-46.5 140.5zM86 182q0 -68 30 -104t78 -36q47 0 76.5 36.5t29.5 104.5q0 65 -29.5 101.5t-76.5 36.5q-48 0 -78 -36.5t-30 -102.5zM211 408h-51l45 96h81z" />
    <glyph glyph-name="ocircumflex" unicode="&#xf4;" horiz-adv-x="390" 
d="M23 182q0 89 47 139t124 50q76 0 123 -49.5t47 -134.5q0 -97 -46.5 -143.5t-123.5 -51.5q-78 0 -124.5 49.5t-46.5 140.5zM86 182q0 -68 30 -104t78 -36q47 0 76.5 36.5t29.5 104.5q0 65 -29.5 101.5t-76.5 36.5q-48 0 -78 -36.5t-30 -102.5zM232 408l-37 59l-40 -59h-70
l75 96h65l77 -96h-70z" />
    <glyph glyph-name="otilde" unicode="&#xf5;" horiz-adv-x="390" 
d="M23 182q0 89 47 139t124 50q76 0 123 -49.5t47 -134.5q0 -97 -46.5 -143.5t-123.5 -51.5q-78 0 -124.5 49.5t-46.5 140.5zM86 182q0 -68 30 -104t78 -36q47 0 76.5 36.5t29.5 104.5q0 65 -29.5 101.5t-76.5 36.5q-48 0 -78 -36.5t-30 -102.5zM125 418h-46v4
q0 30 20.5 51.5t48.5 21.5q9 0 44.5 -14t45.5 -14q12 0 18 5.5t8 23.5h44q-1 -39 -19 -58.5t-49 -19.5q-9 0 -45 15.5t-43 15.5q-27 0 -27 -31z" />
    <glyph glyph-name="odieresis" unicode="&#xf6;" horiz-adv-x="390" 
d="M23 182q0 89 47 139t124 50q76 0 123 -49.5t47 -134.5q0 -97 -46.5 -143.5t-123.5 -51.5q-78 0 -124.5 49.5t-46.5 140.5zM86 182q0 -68 30 -104t78 -36q47 0 76.5 36.5t29.5 104.5q0 65 -29.5 101.5t-76.5 36.5q-48 0 -78 -36.5t-30 -102.5zM162 434h-64v70h64v-70z
M289 434h-64v70h64v-70z" />
    <glyph glyph-name="divide" unicode="&#xf7;" horiz-adv-x="384" 
d="M226 315h-70v70h70v-70zM357 275v-57h-330v57h330zM226 110h-70v70h70v-70z" />
    <glyph glyph-name="oslash" unicode="&#xf8;" horiz-adv-x="427" 
d="M314 342l35 43l31 -23l-36 -48q25 -35 32.5 -62t7.5 -71q0 -90 -47.5 -139.5t-121.5 -49.5q-56 0 -97 28l-36 -47l-33 25l37 46q-43 52 -43 132q0 97 47.5 146t121.5 49q54 0 102 -29zM125 96l155 200q-31 25 -65 25q-48 0 -78 -36.5t-30 -102.5q0 -51 18 -86zM306 264
l-154 -200q25 -22 59 -22q49 0 79.5 36t30.5 104q0 50 -15 82z" />
    <glyph glyph-name="ugrave" unicode="&#xf9;" horiz-adv-x="390" 
d="M338 0h-53v54q-42 -62 -116 -62q-70 0 -97.5 39t-27.5 108v224h62v-202q0 -64 15.5 -90.5t59.5 -26.5q97 0 97 124v195h60v-363zM203 504l47 -96h-50l-80 96h83z" />
    <glyph glyph-name="uacute" unicode="&#xfa;" horiz-adv-x="390" 
d="M338 0h-53v54q-42 -62 -116 -62q-70 0 -97.5 39t-27.5 108v224h62v-202q0 -64 15.5 -90.5t59.5 -26.5q97 0 97 124v195h60v-363zM205 408h-51l45 96h81z" />
    <glyph glyph-name="ucircumflex" unicode="&#xfb;" horiz-adv-x="390" 
d="M338 0h-53v54q-42 -62 -116 -62q-70 0 -97.5 39t-27.5 108v224h62v-202q0 -64 15.5 -90.5t59.5 -26.5q97 0 97 124v195h60v-363zM231 408l-37 59l-40 -59h-70l75 96h65l77 -96h-70z" />
    <glyph glyph-name="udieresis" unicode="&#xfc;" horiz-adv-x="390" 
d="M338 0h-53v54q-42 -62 -116 -62q-70 0 -97.5 39t-27.5 108v224h62v-202q0 -64 15.5 -90.5t59.5 -26.5q97 0 97 124v195h60v-363zM161 434h-64v70h64v-70zM288 434h-64v70h64v-70z" />
    <glyph glyph-name="yacute" unicode="&#xfd;" horiz-adv-x="350" 
d="M43 -140l-7 57q28 -6 35 -6q32 0 42.5 12t31.5 62l3 15l-136 363h65l76 -210q24 -73 27 -84q11 44 24 83l78 211h62l-139 -369q-33 -85 -56 -113t-66 -28q-19 0 -40 7zM195 408h-51l45 96h81z" />
    <glyph glyph-name="thorn" unicode="&#xfe;" horiz-adv-x="390" 
d="M107 -139h-60v641h60v-178q27 29 48.5 38t52.5 9q70 0 112 -52.5t42 -134.5q0 -84 -45.5 -138t-113.5 -54q-53 0 -96 45v-176zM103 180q0 -68 26.5 -103t68.5 -35q44 0 72.5 37t28.5 105q0 65 -28 102t-69 37q-42 0 -70.5 -38t-28.5 -105z" />
    <glyph glyph-name="ydieresis" unicode="&#xff;" horiz-adv-x="350" 
d="M43 -140l-7 57q28 -6 35 -6q32 0 42.5 12t31.5 62l3 15l-136 363h65l76 -210q24 -73 27 -84q11 44 24 83l78 211h62l-139 -369q-33 -85 -56 -113t-66 -28q-19 0 -40 7zM147 434h-64v70h64v-70zM274 434h-64v70h64v-70z" />
    <glyph glyph-name="Amacron" unicode="&#x100;" horiz-adv-x="467" 
d="M70 0h-71l192 502h73l204 -502h-76l-57 152h-210zM198 352l-53 -147h169l-53 139q-34 96 -36 104q-24 -87 -27 -96zM336 540h-214v50h214v-50z" />
    <glyph glyph-name="amacron" unicode="&#x101;" horiz-adv-x="390" 
d="M282 44q-60 -52 -133 -52q-58 0 -90.5 28.5t-32.5 75.5q0 36 18.5 60t50 35.5t62.5 17t67.5 11t53.5 11.5l1 15q0 75 -89 75q-42 0 -62.5 -15.5t-30.5 -54.5l-61 8q11 57 50.5 84.5t114.5 27.5q87 0 113.5 -33t26.5 -105v-80q0 -86 2.5 -106.5t15.5 -46.5h-64
q-7 14 -13 44zM278 160v22q-30 -13 -101 -22q-50 -6 -66 -19.5t-20 -42.5q0 -26 19.5 -41.5t52.5 -15.5q115 0 115 119zM307 420h-214v50h214v-50z" />
    <glyph glyph-name="Abreve" unicode="&#x102;" horiz-adv-x="467" 
d="M70 0h-71l192 502h73l204 -502h-76l-57 152h-210zM198 352l-53 -147h169l-53 139q-34 96 -36 104q-24 -87 -27 -96zM292 619h43q-11 -87 -101 -87q-91 0 -102 87h42q11 -45 57 -45q29 0 42.5 10.5t18.5 34.5z" />
    <glyph glyph-name="abreve" unicode="&#x103;" horiz-adv-x="390" 
d="M282 44q-60 -52 -133 -52q-58 0 -90.5 28.5t-32.5 75.5q0 36 18.5 60t50 35.5t62.5 17t67.5 11t53.5 11.5l1 15q0 75 -89 75q-42 0 -62.5 -15.5t-30.5 -54.5l-61 8q11 57 50.5 84.5t114.5 27.5q87 0 113.5 -33t26.5 -105v-80q0 -86 2.5 -106.5t15.5 -46.5h-64
q-7 14 -13 44zM278 160v22q-30 -13 -101 -22q-50 -6 -66 -19.5t-20 -42.5q0 -26 19.5 -41.5t52.5 -15.5q115 0 115 119zM259 499h43q-11 -87 -101 -87q-91 0 -102 87h42q11 -45 57 -45q29 0 42.5 10.5t18.5 34.5z" />
    <glyph glyph-name="Aogonek" unicode="&#x104;" horiz-adv-x="467" 
d="M70 0h-71l192 502h73l204 -502h-76l-57 152h-210zM198 352l-53 -147h169l-53 139q-34 96 -36 104q-24 -87 -27 -96zM393 10h42q-14 -33 -14 -56t14 -37t36 -14t57 15v-41q-37 -21 -74 -21q-35 0 -55 20.5t-20 55.5q0 30 14 78z" />
    <glyph glyph-name="aogonek" unicode="&#x105;" horiz-adv-x="390" 
d="M282 44q-60 -52 -133 -52q-58 0 -90.5 28.5t-32.5 75.5q0 36 18.5 60t50 35.5t62.5 17t67.5 11t53.5 11.5l1 15q0 75 -89 75q-42 0 -62.5 -15.5t-30.5 -54.5l-61 8q11 57 50.5 84.5t114.5 27.5q87 0 113.5 -33t26.5 -105v-80q0 -86 2.5 -106.5t15.5 -46.5h-64
q-7 14 -13 44zM278 160v22q-30 -13 -101 -22q-50 -6 -66 -19.5t-20 -42.5q0 -26 19.5 -41.5t52.5 -15.5q115 0 115 119zM299 16h42q-14 -33 -14 -56t14 -37t36 -14t57 15v-41q-37 -21 -74 -21q-35 0 -55 20.5t-20 55.5q0 30 14 78z" />
    <glyph glyph-name="Cacute" unicode="&#x106;" horiz-adv-x="505" 
d="M412 175l65 -15q-42 -168 -218 -168q-109 0 -165.5 74t-58.5 188q0 118 66 187t171 69q74 0 125.5 -38.5t71.5 -107.5l-64 -15q-36 104 -134 104q-86 0 -126.5 -56.5t-40.5 -142.5q0 -97 43 -151.5t118 -54.5q56 0 94.5 32.5t52.5 94.5zM279 532h-51l45 96h81z" />
    <glyph glyph-name="cacute" unicode="&#x107;" horiz-adv-x="350" 
d="M282 133l61 -8q-10 -62 -50.5 -97.5t-101.5 -35.5q-76 0 -119.5 49t-43.5 140q0 90 44 140t122 50q58 0 95.5 -30t47.5 -84l-59 -10q-18 74 -83 74q-48 0 -76 -34.5t-28 -104.5t27 -105t73 -35q38 0 62 23t29 68zM196 408h-51l45 96h81z" />
    <glyph glyph-name="Ccircumflex" unicode="&#x108;" horiz-adv-x="505" 
d="M412 175l65 -15q-42 -168 -218 -168q-109 0 -165.5 74t-58.5 188q0 118 66 187t171 69q74 0 125.5 -38.5t71.5 -107.5l-64 -15q-36 104 -134 104q-86 0 -126.5 -56.5t-40.5 -142.5q0 -97 43 -151.5t118 -54.5q56 0 94.5 32.5t52.5 94.5zM302 529l-37 59l-40 -59h-70
l75 96h65l77 -96h-70z" />
    <glyph glyph-name="ccircumflex" unicode="&#x109;" horiz-adv-x="350" 
d="M282 133l61 -8q-10 -62 -50.5 -97.5t-101.5 -35.5q-76 0 -119.5 49t-43.5 140q0 90 44 140t122 50q58 0 95.5 -30t47.5 -84l-59 -10q-18 74 -83 74q-48 0 -76 -34.5t-28 -104.5t27 -105t73 -35q38 0 62 23t29 68zM240 408l-37 59l-40 -59h-70l75 96h65l77 -96h-70z" />
    <glyph glyph-name="Cdot" unicode="&#x10a;" horiz-adv-x="505" 
d="M412 175l65 -15q-42 -168 -218 -168q-109 0 -165.5 74t-58.5 188q0 118 66 187t171 69q74 0 125.5 -38.5t71.5 -107.5l-64 -15q-36 104 -134 104q-86 0 -126.5 -56.5t-40.5 -142.5q0 -97 43 -151.5t118 -54.5q56 0 94.5 32.5t52.5 94.5zM301 546h-76v76h76v-76z" />
    <glyph glyph-name="cdot" unicode="&#x10b;" horiz-adv-x="350" 
d="M282 133l61 -8q-10 -62 -50.5 -97.5t-101.5 -35.5q-76 0 -119.5 49t-43.5 140q0 90 44 140t122 50q58 0 95.5 -30t47.5 -84l-59 -10q-18 74 -83 74q-48 0 -76 -34.5t-28 -104.5t27 -105t73 -35q38 0 62 23t29 68zM237 408h-76v76h76v-76z" />
    <glyph glyph-name="Ccaron" unicode="&#x10c;" horiz-adv-x="505" 
d="M412 175l65 -15q-42 -168 -218 -168q-109 0 -165.5 74t-58.5 188q0 118 66 187t171 69q74 0 125.5 -38.5t71.5 -107.5l-64 -15q-36 104 -134 104q-86 0 -126.5 -56.5t-40.5 -142.5q0 -97 43 -151.5t118 -54.5q56 0 94.5 32.5t52.5 94.5zM231 625l40 -58l37 58h69l-77 -96
h-67l-72 96h70z" />
    <glyph glyph-name="ccaron" unicode="&#x10d;" horiz-adv-x="350" 
d="M282 133l61 -8q-10 -62 -50.5 -97.5t-101.5 -35.5q-76 0 -119.5 49t-43.5 140q0 90 44 140t122 50q58 0 95.5 -30t47.5 -84l-59 -10q-18 74 -83 74q-48 0 -76 -34.5t-28 -104.5t27 -105t73 -35q38 0 62 23t29 68zM153 504l40 -58l37 58h69l-77 -96h-67l-72 96h70z" />
    <glyph glyph-name="Dcaron" unicode="&#x10e;" horiz-adv-x="505" 
d="M236 0h-181v502h171q242 0 242 -249q0 -253 -232 -253zM120 442v-384h106q100 0 137 47.5t37 148.5q0 110 -44 149t-131 39h-105zM167 625l40 -58l37 58h69l-77 -96h-67l-72 96h70z" />
    <glyph glyph-name="dcaron" unicode="&#x10f;" horiz-adv-x="429" 
d="M399 439h-30v63h63v-63q0 -36 -12 -57t-41 -33l-15 23q35 17 35 67zM338 0h-57v47q-32 -55 -100 -55q-67 0 -112.5 53.5t-45.5 135.5q0 84 42.5 137t111.5 53q65 0 101 -50v181h60v-502zM86 181q0 -66 29 -102.5t72 -36.5q42 0 68.5 34.5t26.5 99.5q0 71 -27.5 108
t-71.5 37t-70.5 -35t-26.5 -105z" />
    <glyph glyph-name="Dslash" unicode="&#x110;" horiz-adv-x="505" 
d="M236 0h-181v229h-56v44h56v229h171q242 0 242 -249q0 -253 -232 -253zM120 229v-171h106q101 0 137.5 47.5t36.5 147.5q0 104 -40 146.5t-135 42.5h-105v-169h139v-44h-139z" />
    <glyph glyph-name="dmacron" unicode="&#x111;" horiz-adv-x="390" 
d="M278 321v97h-118v44h118v40h60v-40h49v-44h-49v-418h-57v47q-32 -55 -100 -55q-67 0 -112.5 53.5t-45.5 135.5q0 84 42.5 137t111.5 53q65 0 101 -50zM86 181q0 -66 29 -102.5t72 -36.5q42 0 68.5 34.5t26.5 99.5q0 71 -27.5 108t-71.5 37t-70.5 -35t-26.5 -105z" />
    <glyph glyph-name="Emacron" unicode="&#x112;" horiz-adv-x="467" 
d="M429 0h-373v502h362v-60h-297v-154h278v-58h-278v-172h308v-58zM355 544h-214v50h214v-50z" />
    <glyph glyph-name="emacron" unicode="&#x113;" horiz-adv-x="390" 
d="M294 117l64 -7q-33 -118 -160 -118q-80 0 -126 49t-46 136q0 91 46.5 142.5t122.5 51.5q74 0 119 -50.5t45 -138.5v-16h-269q2 -58 32 -91t76 -33q69 0 96 75zM92 217h203q-5 53 -32 78.5t-67 25.5q-42 0 -71 -29t-33 -75zM300 420h-214v50h214v-50z" />
    <glyph glyph-name="Ebreve" unicode="&#x114;" horiz-adv-x="467" 
d="M429 0h-373v502h362v-60h-297v-154h278v-58h-278v-172h308v-58zM300 623h43q-11 -87 -101 -87q-91 0 -102 87h42q11 -45 57 -45q29 0 42.5 10.5t18.5 34.5z" />
    <glyph glyph-name="ebreve" unicode="&#x115;" horiz-adv-x="390" 
d="M294 117l64 -7q-33 -118 -160 -118q-80 0 -126 49t-46 136q0 91 46.5 142.5t122.5 51.5q74 0 119 -50.5t45 -138.5v-16h-269q2 -58 32 -91t76 -33q69 0 96 75zM92 217h203q-5 53 -32 78.5t-67 25.5q-42 0 -71 -29t-33 -75zM259 499h43q-11 -87 -101 -87q-91 0 -102 87h42
q11 -45 57 -45q29 0 42.5 10.5t18.5 34.5z" />
    <glyph glyph-name="Edot" unicode="&#x116;" horiz-adv-x="467" 
d="M429 0h-373v502h362v-60h-297v-154h278v-58h-278v-172h308v-58zM286 532h-76v76h76v-76z" />
    <glyph glyph-name="edot" unicode="&#x117;" horiz-adv-x="390" 
d="M294 117l64 -7q-33 -118 -160 -118q-80 0 -126 49t-46 136q0 91 46.5 142.5t122.5 51.5q74 0 119 -50.5t45 -138.5v-16h-269q2 -58 32 -91t76 -33q69 0 96 75zM92 217h203q-5 53 -32 78.5t-67 25.5q-42 0 -71 -29t-33 -75zM239 408h-76v76h76v-76z" />
    <glyph glyph-name="Eogonek" unicode="&#x118;" horiz-adv-x="467" 
d="M429 0h-373v502h362v-60h-297v-154h278v-58h-278v-172h308v-58zM293 8h42q-14 -33 -14 -56t14 -37t36 -14t57 15v-41q-37 -21 -74 -21q-35 0 -55 20.5t-20 55.5q0 30 14 78z" />
    <glyph glyph-name="eogonek" unicode="&#x119;" horiz-adv-x="390" 
d="M294 117l64 -7q-33 -118 -160 -118q-80 0 -126 49t-46 136q0 91 46.5 142.5t122.5 51.5q74 0 119 -50.5t45 -138.5v-16h-269q2 -58 32 -91t76 -33q69 0 96 75zM92 217h203q-5 53 -32 78.5t-67 25.5q-42 0 -71 -29t-33 -75zM184 8h42q-14 -33 -14 -56t14 -37t36 -14t57 15
v-41q-37 -21 -74 -21q-35 0 -55 20.5t-20 55.5q0 30 14 78z" />
    <glyph glyph-name="Ecaron" unicode="&#x11a;" horiz-adv-x="467" 
d="M429 0h-373v502h362v-60h-297v-154h278v-58h-278v-172h308v-58zM189 625l40 -58l37 58h69l-77 -96h-67l-72 96h70z" />
    <glyph glyph-name="ecaron" unicode="&#x11b;" horiz-adv-x="390" 
d="M294 117l64 -7q-33 -118 -160 -118q-80 0 -126 49t-46 136q0 91 46.5 142.5t122.5 51.5q74 0 119 -50.5t45 -138.5v-16h-269q2 -58 32 -91t76 -33q69 0 96 75zM92 217h203q-5 53 -32 78.5t-67 25.5q-42 0 -71 -29t-33 -75zM161 504l40 -58l37 58h69l-77 -96h-67l-72 96
h70z" />
    <glyph glyph-name="Gcircumflex" unicode="&#x11c;" horiz-adv-x="545" 
d="M435 196h-147v61h214v-187q-98 -78 -221 -78q-104 0 -174 70.5t-70 174.5q0 117 63 195t173 78q94 0 147.5 -36t71.5 -112l-58 -18q-16 55 -50.5 82t-95.5 27q-51 0 -88.5 -18t-57 -48.5t-28.5 -64t-9 -70.5q0 -98 50.5 -149.5t133.5 -51.5q42 0 83 15.5t63 37.5v92z
M335 528l-37 59l-40 -59h-70l75 96h65l77 -96h-70z" />
    <glyph glyph-name="gcircumflex" unicode="&#x11d;" horiz-adv-x="390" 
d="M35 -29l61 -11q1 -28 23 -42.5t58 -14.5q63 0 83 31.5t20 113.5q-39 -48 -100 -48q-73 0 -115.5 52.5t-42.5 130.5q0 83 43 135.5t115 52.5q65 0 106 -51v43h57v-314q0 -106 -38.5 -151t-127.5 -45q-66 0 -104 30.5t-38 87.5zM85 188q0 -69 27.5 -103.5t71.5 -34.5
q46 0 74 34.5t28 102.5q0 63 -29.5 98.5t-72.5 35.5q-44 0 -71.5 -35t-27.5 -98zM224 408l-37 59l-40 -59h-70l75 96h65l77 -96h-70z" />
    <glyph glyph-name="Gbreve" unicode="&#x11e;" horiz-adv-x="545" 
d="M435 196h-147v61h214v-187q-98 -78 -221 -78q-104 0 -174 70.5t-70 174.5q0 117 63 195t173 78q94 0 147.5 -36t71.5 -112l-58 -18q-16 55 -50.5 82t-95.5 27q-51 0 -88.5 -18t-57 -48.5t-28.5 -64t-9 -70.5q0 -98 50.5 -149.5t133.5 -51.5q42 0 83 15.5t63 37.5v92z
M355 619h43q-11 -87 -101 -87q-91 0 -102 87h42q11 -45 57 -45q29 0 42.5 10.5t18.5 34.5z" />
    <glyph glyph-name="gbreve" unicode="&#x11f;" horiz-adv-x="390" 
d="M35 -29l61 -11q1 -28 23 -42.5t58 -14.5q63 0 83 31.5t20 113.5q-39 -48 -100 -48q-73 0 -115.5 52.5t-42.5 130.5q0 83 43 135.5t115 52.5q65 0 106 -51v43h57v-314q0 -106 -38.5 -151t-127.5 -45q-66 0 -104 30.5t-38 87.5zM85 188q0 -69 27.5 -103.5t71.5 -34.5
q46 0 74 34.5t28 102.5q0 63 -29.5 98.5t-72.5 35.5q-44 0 -71.5 -35t-27.5 -98zM253 499h43q-11 -87 -101 -87q-91 0 -102 87h42q11 -45 57 -45q29 0 42.5 10.5t18.5 34.5z" />
    <glyph glyph-name="Gdot" unicode="&#x120;" horiz-adv-x="545" 
d="M435 196h-147v61h214v-187q-98 -78 -221 -78q-104 0 -174 70.5t-70 174.5q0 117 63 195t173 78q94 0 147.5 -36t71.5 -112l-58 -18q-16 55 -50.5 82t-95.5 27q-51 0 -88.5 -18t-57 -48.5t-28.5 -64t-9 -70.5q0 -98 50.5 -149.5t133.5 -51.5q42 0 83 15.5t63 37.5v92z
M334 528h-76v76h76v-76z" />
    <glyph glyph-name="gdot" unicode="&#x121;" horiz-adv-x="390" 
d="M35 -29l61 -11q1 -28 23 -42.5t58 -14.5q63 0 83 31.5t20 113.5q-39 -48 -100 -48q-73 0 -115.5 52.5t-42.5 130.5q0 83 43 135.5t115 52.5q65 0 106 -51v43h57v-314q0 -106 -38.5 -151t-127.5 -45q-66 0 -104 30.5t-38 87.5zM85 188q0 -69 27.5 -103.5t71.5 -34.5
q46 0 74 34.5t28 102.5q0 63 -29.5 98.5t-72.5 35.5q-44 0 -71.5 -35t-27.5 -98zM232 408h-76v76h76v-76z" />
    <glyph glyph-name="Gcedilla" unicode="&#x122;" horiz-adv-x="545" 
d="M435 196h-147v61h214v-187q-98 -78 -221 -78q-104 0 -174 70.5t-70 174.5q0 117 63 195t173 78q94 0 147.5 -36t71.5 -112l-58 -18q-16 55 -50.5 82t-95.5 27q-51 0 -88.5 -18t-57 -48.5t-28.5 -64t-9 -70.5q0 -98 50.5 -149.5t133.5 -51.5q42 0 83 15.5t63 37.5v92z
M257 -54l16 62h47l-12 -37q28 -4 43 -17.5t15 -31.5q0 -28 -25.5 -47.5t-73.5 -19.5q-14 0 -49 5l5 41q14 -1 31 -1q55 0 55 24q0 22 -52 22z" />
    <glyph glyph-name="gcedilla" unicode="&#x123;" horiz-adv-x="390" 
d="M183 460h33v-60h-71v40q0 78 57 99l17 -28q-28 -12 -36 -51zM35 -29l61 -11q5 -57 81 -57q62 0 82.5 29t20.5 116q-39 -48 -99 -48q-74 0 -116.5 52.5t-42.5 130.5q0 84 42 136t117 52q64 0 105 -51v43h57v-314q0 -102 -38.5 -149t-124.5 -47q-72 0 -108.5 30.5
t-36.5 87.5zM85 188q0 -69 28 -103.5t71 -34.5q48 0 75 34.5t27 103.5q0 59 -27.5 96t-74.5 37q-45 0 -72 -35.5t-27 -97.5z" />
    <glyph glyph-name="Hcircumflex" unicode="&#x124;" horiz-adv-x="505" 
d="M121 0h-65v502h65v-207h262v207h66v-502h-66v237h-262v-237zM302 532l-37 59l-40 -59h-70l75 96h65l77 -96h-70z" />
    <glyph glyph-name="hcircumflex" unicode="&#x125;" horiz-adv-x="390" 
d="M107 0h-60v502h60v-181q46 50 110 50q62 -5 93.5 -33.5t31.5 -94.5v-243h-62v230q0 87 -76 87q-97 0 -97 -119v-198zM258 532l-37 59l-40 -59h-70l75 96h65l77 -96h-70z" />
    <glyph glyph-name="Hbar" unicode="&#x126;" horiz-adv-x="505" 
d="M56 0v376h-44v50h44v76h65v-76h262v76h66v-76h46v-50h-46v-376h-66v237h-262v-237h-65zM383 376h-262v-81h262v81z" />
    <glyph glyph-name="hbar" unicode="&#x127;" horiz-adv-x="390" 
d="M47 0v411h-46v44h46v47h60v-47h126v-44h-126v-90q41 50 110 50q25 0 44 -5t39 -18.5t31 -43.5t11 -74v-230h-62v230q0 87 -77 87q-96 0 -96 -119v-198h-60z" />
    <glyph glyph-name="Itilde" unicode="&#x128;" horiz-adv-x="195" 
d="M132 0h-67v502h67v-502zM25 542h-46v4q0 30 20.5 51.5t48.5 21.5q9 0 44.5 -14t45.5 -14q12 0 18 5.5t8 23.5h44q-1 -39 -19 -58.5t-49 -19.5q-9 0 -45 15.5t-43 15.5q-27 0 -27 -31z" />
    <glyph glyph-name="itilde" unicode="&#x129;" horiz-adv-x="195" 
d="M128 0h-60v363h60v-363zM29 418h-46v4q0 30 20.5 51.5t48.5 21.5q9 0 44.5 -14t45.5 -14q12 0 18 5.5t8 23.5h44q-1 -39 -19 -58.5t-49 -19.5q-9 0 -45 15.5t-43 15.5q-27 0 -27 -31z" />
    <glyph glyph-name="Imacron" unicode="&#x12a;" horiz-adv-x="195" 
d="M132 0h-67v502h67v-502zM203 534h-214v50h214v-50z" />
    <glyph glyph-name="imacron" unicode="&#x12b;" horiz-adv-x="195" 
d="M128 0h-60v363h60v-363zM204 420h-214v50h214v-50z" />
    <glyph glyph-name="Ibreve" unicode="&#x12c;" horiz-adv-x="195" 
d="M132 0h-67v502h67v-502zM160 613h43q-11 -87 -101 -87q-91 0 -102 87h42q11 -45 57 -45q29 0 42.5 10.5t18.5 34.5z" />
    <glyph glyph-name="ibreve" unicode="&#x12d;" horiz-adv-x="195" 
d="M128 0h-60v363h60v-363zM156 499h43q-11 -87 -101 -87q-91 0 -102 87h42q11 -45 57 -45q29 0 42.5 10.5t18.5 34.5z" />
    <glyph glyph-name="Iogonek" unicode="&#x12e;" horiz-adv-x="195" 
d="M134 0h-24q-11 -30 -11 -48q0 -23 14 -37t35 -14q22 0 57 15v-41q-37 -21 -77 -21q-30 0 -51 21t-21 55q0 20 12 70v502h66v-502z" />
    <glyph glyph-name="iogonek" unicode="&#x12f;" horiz-adv-x="155" 
d="M107 429h-60v73h60v-73zM107 0h-18q-11 -30 -11 -48q0 -23 14 -37t35 -14q22 0 57 15v-41q-37 -21 -74 -21q-35 0 -55 21t-20 55q0 13 12 70v363h60v-363z" />
    <glyph glyph-name="Idot" unicode="&#x130;" horiz-adv-x="195" 
d="M132 0h-67v502h67v-502zM135 532h-76v76h76v-76z" />
    <glyph glyph-name="dotlessi" unicode="&#x131;" horiz-adv-x="195" 
d="M128 0h-60v363h60v-363z" />
    <glyph glyph-name="IJ" unicode="&#x132;" horiz-adv-x="513" 
d="M132 0h-67v502h67v-502zM203 142l59 7q4 -55 22 -77t53 -22q41 0 58.5 23.5t17.5 81.5v347h65v-342q0 -87 -35 -127.5t-105 -40.5q-135 0 -135 150z" />
    <glyph glyph-name="ij" unicode="&#x133;" horiz-adv-x="310" 
d="M107 429h-60v73h60v-73zM107 0h-60v363h60v-363zM270 429h-60v73h60v-73zM130 -141l12 52q17 -4 29 -4q22 0 30.5 13.5t8.5 60.5v382h60v-383q0 -71 -22 -99t-70 -28q-28 0 -48 6z" />
    <glyph glyph-name="Jcircumflex" unicode="&#x134;" horiz-adv-x="350" 
d="M20 142l59 7q4 -55 22 -77t53 -22q41 0 58.5 23.5t17.5 81.5v347h65v-342q0 -87 -35 -127.5t-105 -40.5q-135 0 -135 150zM309 532l-37 59l-40 -59h-70l75 96h65l77 -96h-70z" />
    <glyph glyph-name="jcircumflex" unicode="&#x135;" horiz-adv-x="155" 
d="M117 408l-39 59l-37 -59h-70l72 96h67l77 -96h-70zM-33 -141l12 52q17 -4 29 -4q22 0 30.5 15t8.5 59v382h60v-383q0 -69 -20.5 -98t-71.5 -29q-28 0 -48 6z" />
    <glyph glyph-name="Kcedilla" unicode="&#x136;" horiz-adv-x="467" 
d="M118 0h-67v502h67v-250l248 250h90l-210 -203l221 -299h-89l-177 253l-83 -79v-174zM228 -54v38q10 1 24 1q45 0 66.5 -17.5t21.5 -45.5t-25.5 -47.5t-74.5 -19.5q-1 0 -48 5l5 41q9 -1 29 -1q57 0 57 24q0 25 -43 25q-7 0 -12 -3z" />
    <glyph glyph-name="kcedilla" unicode="&#x137;" horiz-adv-x="350" 
d="M107 0h-60v502h60v-286l146 147h81l-139 -134l153 -229h-76l-120 187l-45 -42v-145zM171 -54v38q10 1 24 1q45 0 66.5 -17.5t21.5 -45.5t-25.5 -47.5t-74.5 -19.5q-1 0 -48 5l5 41q9 -1 29 -1q57 0 57 24q0 25 -43 25q-7 0 -12 -3z" />
    <glyph glyph-name="kgreenlandic" unicode="&#x138;" horiz-adv-x="350" 
d="M107 0h-60v363h60v-147l146 147h81l-140 -134l154 -229h-77l-119 187l-45 -42v-145z" />
    <glyph glyph-name="Lacute" unicode="&#x139;" horiz-adv-x="390" 
d="M364 0h-313v502h67v-444h246v-58zM155 532h-51l45 96h81z" />
    <glyph glyph-name="lacute" unicode="&#x13a;" horiz-adv-x="155" 
d="M106 0h-62v502h62v-502zM73 527h-51l45 96h81z" />
    <glyph glyph-name="Lcedilla" unicode="&#x13b;" horiz-adv-x="390" 
d="M364 0h-313v502h67v-444h246v-58zM189 -54v38q10 1 24 1q45 0 66.5 -17.5t21.5 -45.5t-25.5 -47.5t-74.5 -19.5q-1 0 -48 5l5 41q9 -1 29 -1q57 0 57 24q0 25 -43 25q-7 0 -12 -3z" />
    <glyph glyph-name="lcedilla" unicode="&#x13c;" horiz-adv-x="155" 
d="M106 0h-62v502h62v-502zM35 -54v38q10 1 24 1q45 0 66.5 -17.5t21.5 -45.5t-25.5 -47.5t-74.5 -19.5q-1 0 -48 5l5 41q9 -1 29 -1q57 0 57 24q0 25 -43 25q-7 0 -12 -3z" />
    <glyph glyph-name="Lcaron" unicode="&#x13d;" horiz-adv-x="390" 
d="M279 432h-35v70h70v-70q0 -74 -57 -101l-18 27q39 17 40 74zM364 0h-313v502h67v-444h246v-58z" />
    <glyph glyph-name="lcaron" unicode="&#x13e;" horiz-adv-x="204" 
d="M173 439h-32v63h63v-63q0 -67 -51 -90l-15 23q31 16 35 67zM107 0h-60v502h60v-502z" />
    <glyph glyph-name="Ldot" unicode="&#x13f;" horiz-adv-x="390" 
d="M364 0h-313v502h67v-444h246v-58zM317 218h-70v70h70v-70z" />
    <glyph glyph-name="ldot" unicode="&#x140;" horiz-adv-x="233" 
d="M106 0h-62v502h62v-502zM231 218h-70v70h70v-70z" />
    <glyph glyph-name="Lslash" unicode="&#x141;" horiz-adv-x="390" 
d="M49 0v194l-49 -42v57l49 42v251h68v-195l113 97v-59l-113 -95v-192h247v-58h-315z" />
    <glyph glyph-name="lslash" unicode="&#x142;" horiz-adv-x="155" 
d="M44 0v196l-43 -37v53l43 39v251h62v-200l47 40v-54l-47 -41v-247h-62z" />
    <glyph glyph-name="Nacute" unicode="&#x143;" horiz-adv-x="505" 
d="M117 0h-63v502h67l264 -395v395h63v-502h-69l-262 393v-393zM246 532h-51l45 96h81z" />
    <glyph glyph-name="nacute" unicode="&#x144;" horiz-adv-x="390" 
d="M107 0h-60v363h56v-53q37 61 114 61q69 0 97 -39t28 -109v-223h-62v222q0 95 -76 95q-43 0 -70 -28t-27 -91v-198zM204 408h-51l45 96h81z" />
    <glyph glyph-name="Ncedilla" unicode="&#x145;" horiz-adv-x="505" 
d="M117 0h-63v502h67l264 -395v395h63v-502h-69l-262 393v-393zM239 -54v38q10 1 24 1q45 0 66.5 -17.5t21.5 -45.5t-25.5 -47.5t-74.5 -19.5q-1 0 -48 5l5 41q9 -1 29 -1q57 0 57 24q0 25 -43 25q-7 0 -12 -3z" />
    <glyph glyph-name="ncedilla" unicode="&#x146;" horiz-adv-x="390" 
d="M107 0h-60v363h56v-53q37 61 114 61q69 0 97 -39t28 -109v-223h-62v222q0 95 -76 95q-43 0 -70 -28t-27 -91v-198zM157 -54v38q10 1 24 1q45 0 66.5 -17.5t21.5 -45.5t-25.5 -47.5t-74.5 -19.5l-48 5l5 41q9 -1 29 -1q57 0 57 24q0 25 -43 25q-7 0 -12 -3z" />
    <glyph glyph-name="Ncaron" unicode="&#x147;" horiz-adv-x="505" 
d="M117 0h-63v502h67l264 -395v395h63v-502h-69l-262 393v-393zM212 628l40 -58l37 58h69l-77 -96h-67l-72 96h70z" />
    <glyph glyph-name="ncaron" unicode="&#x148;" horiz-adv-x="390" 
d="M107 0h-60v363h56v-53q37 61 114 61q69 0 97 -39t28 -109v-223h-62v222q0 95 -76 95q-43 0 -70 -28t-27 -91v-198zM161 504l40 -58l37 58h69l-77 -96h-67l-72 96h70z" />
    <glyph glyph-name="napostrophe" unicode="&#x149;" horiz-adv-x="422" 
d="M190 0h-60v363h56v-53q37 61 114 61q69 0 97 -39t28 -109v-223h-62v222q0 95 -76 95q-43 0 -70 -28t-27 -91v-198zM75 435h-33v71h65v-57q0 -48 -12.5 -71t-43.5 -36l-15 24q35 14 39 69z" />
    <glyph glyph-name="Eng" unicode="&#x14a;" horiz-adv-x="506" 
d="M56 0v502h68v-63q35 42 72.5 56.5t85.5 14.5q93 -6 140 -64t47 -188q0 -132 -43 -199t-120 -67q-44 0 -87 23l32 54q31 -19 55 -19q42 0 68.5 52.5t26.5 154.5q0 197 -137 197q-71 0 -105.5 -41.5t-34.5 -138.5v-274h-68z" />
    <glyph glyph-name="eng" unicode="&#x14b;" horiz-adv-x="390" 
d="M343 223v-243q0 -69 -20.5 -98t-71.5 -29q-30 0 -48 6l12 52q15 -4 29 -4q22 0 29.5 15t7.5 59v241q0 50 -18 72.5t-59 22.5q-94 0 -94 -119v-198h-62v363h55v-53q37 61 115 61q67 0 96 -36t29 -112z" />
    <glyph glyph-name="Omacron" unicode="&#x14c;" horiz-adv-x="545" 
d="M34 244q0 123 66 194.5t174 71.5q111 0 174.5 -75t63.5 -197q0 -107 -67.5 -176.5t-164.5 -69.5q-109 0 -177.5 72.5t-68.5 179.5zM103 244q0 -90 47.5 -143t122.5 -53q77 0 125 54t48 149q0 91 -47.5 146.5t-124.5 55.5q-74 0 -122.5 -51t-48.5 -158zM385 547h-214v50
h214v-50z" />
    <glyph glyph-name="omacron" unicode="&#x14d;" horiz-adv-x="390" 
d="M23 182q0 89 47 139t124 50q76 0 123 -49.5t47 -134.5q0 -97 -46.5 -143.5t-123.5 -51.5q-78 0 -124.5 49.5t-46.5 140.5zM86 182q0 -68 30 -104t78 -36q47 0 76.5 36.5t29.5 104.5q0 65 -29.5 101.5t-76.5 36.5q-48 0 -78 -36.5t-30 -102.5zM302 420h-214v50h214v-50z
" />
    <glyph glyph-name="Obreve" unicode="&#x14e;" horiz-adv-x="545" 
d="M34 244q0 123 66 194.5t174 71.5q111 0 174.5 -75t63.5 -197q0 -107 -67.5 -176.5t-164.5 -69.5q-109 0 -177.5 72.5t-68.5 179.5zM103 244q0 -90 47.5 -143t122.5 -53q77 0 125 54t48 149q0 91 -47.5 146.5t-124.5 55.5q-74 0 -122.5 -51t-48.5 -158zM337 623h43
q-11 -87 -101 -87q-91 0 -102 87h42q11 -45 57 -45q29 0 42.5 10.5t18.5 34.5z" />
    <glyph glyph-name="obreve" unicode="&#x14f;" horiz-adv-x="390" 
d="M23 182q0 89 47 139t124 50q76 0 123 -49.5t47 -134.5q0 -97 -46.5 -143.5t-123.5 -51.5q-78 0 -124.5 49.5t-46.5 140.5zM86 182q0 -68 30 -104t78 -36q47 0 76.5 36.5t29.5 104.5q0 65 -29.5 101.5t-76.5 36.5q-48 0 -78 -36.5t-30 -102.5zM254 499h43
q-11 -87 -101 -87q-91 0 -102 87h42q11 -45 57 -45q29 0 42.5 10.5t18.5 34.5z" />
    <glyph glyph-name="Odblacute" unicode="&#x150;" horiz-adv-x="545" 
d="M34 244q0 123 66 194.5t174 71.5q111 0 174.5 -75t63.5 -197q0 -107 -67.5 -176.5t-164.5 -69.5q-109 0 -177.5 72.5t-68.5 179.5zM103 244q0 -90 47.5 -143t122.5 -53q77 0 125 54t48 149q0 91 -47.5 146.5t-124.5 55.5q-74 0 -122.5 -51t-48.5 -158zM210 532h-49l42 96
h79zM331 532h-51l43 96h78z" />
    <glyph glyph-name="odblacute" unicode="&#x151;" horiz-adv-x="390" 
d="M23 182q0 89 47 139t124 50q76 0 123 -49.5t47 -134.5q0 -97 -46.5 -143.5t-123.5 -51.5q-78 0 -124.5 49.5t-46.5 140.5zM86 182q0 -68 30 -104t78 -36q47 0 76.5 36.5t29.5 104.5q0 65 -29.5 101.5t-76.5 36.5q-48 0 -78 -36.5t-30 -102.5zM146 408h-49l42 96h79z
M267 408h-51l43 96h78z" />
    <glyph glyph-name="OE" unicode="&#x152;" horiz-adv-x="700" 
d="M446 58h232v-58h-294v72q-48 -80 -138 -80q-95 0 -149 71t-54 188q0 115 51 187t152 72q88 0 138 -76v68h283v-60h-221v-154h204v-58h-204v-172zM246 456q-60 0 -97 -52.5t-37 -157.5q0 -99 38 -150.5t96 -51.5q59 0 96 52t37 158q0 100 -37 151t-96 51z" />
    <glyph glyph-name="oe" unicode="&#x153;" horiz-adv-x="660" 
d="M335 61q-53 -69 -137 -69q-77 0 -123.5 49.5t-46.5 134.5q0 91 46.5 143t126.5 52q44 0 79.5 -19t54.5 -50q47 69 133 69q77 0 122 -53t45 -152h-269q2 -57 32 -90.5t77 -33.5q70 0 93 76l62 -8q-33 -118 -156 -118q-96 0 -139 69zM91 182q0 -68 30 -104t76 -36
q45 0 75.5 37.5t30.5 103.5t-29.5 102t-76.5 36t-76.5 -38.5t-29.5 -100.5zM370 216h199q-3 51 -30 78t-69 27t-70 -28.5t-30 -76.5z" />
    <glyph glyph-name="Racute" unicode="&#x154;" horiz-adv-x="505" 
d="M121 0h-66v502h240q83 0 118.5 -35t41.5 -103q0 -55 -35 -91t-105 -44q53 -29 93 -94l89 -135h-84l-65 104q-38 60 -61.5 85t-38.5 29.5t-50 4.5h-77v-223zM121 446v-166h143q123 0 123 84q0 82 -107 82h-159zM224 532h-51l45 96h81z" />
    <glyph glyph-name="racute" unicode="&#x155;" horiz-adv-x="233" 
d="M106 0h-62v363h56v-55q35 63 80 63q31 0 63 -20l-21 -57q-26 14 -46 14q-35 0 -52.5 -33.5t-17.5 -84.5v-190zM134 408h-51l45 96h81z" />
    <glyph glyph-name="Rcedilla" unicode="&#x156;" horiz-adv-x="505" 
d="M121 0h-66v502h240q83 0 118.5 -35t41.5 -103q0 -55 -35 -91t-105 -44q53 -29 93 -94l89 -135h-84l-65 104q-38 60 -61.5 85t-38.5 29.5t-50 4.5h-77v-223zM121 446v-166h143q123 0 123 84q0 82 -107 82h-159zM239 -54v38q10 1 24 1q45 0 66.5 -17.5t21.5 -45.5
t-25.5 -47.5t-74.5 -19.5q-1 0 -48 5l5 41q9 -1 29 -1q57 0 57 24q0 25 -43 25q-7 0 -12 -3z" />
    <glyph glyph-name="rcedilla" unicode="&#x157;" horiz-adv-x="233" 
d="M106 0h-62v363h56v-55q35 63 80 63q31 0 63 -20l-21 -57q-26 14 -46 14q-35 0 -52.5 -33.5t-17.5 -84.5v-190zM85 -54v38q10 1 24 1q45 0 66.5 -17.5t21.5 -45.5t-25.5 -47.5t-74.5 -19.5q-1 0 -48 5l5 41q9 -1 29 -1q57 0 57 24q0 25 -43 25q-7 0 -12 -3z" />
    <glyph glyph-name="Rcaron" unicode="&#x158;" horiz-adv-x="505" 
d="M121 0h-66v502h240q83 0 118.5 -35t41.5 -103q0 -55 -35 -91t-105 -44q53 -29 93 -94l89 -135h-84l-65 104q-38 60 -61.5 85t-38.5 29.5t-50 4.5h-77v-223zM121 446v-166h143q123 0 123 84q0 82 -107 82h-159zM183 625l40 -58l37 58h69l-77 -96h-67l-72 96h70z" />
    <glyph glyph-name="rcaron" unicode="&#x159;" horiz-adv-x="233" 
d="M106 0h-62v363h56v-55q35 63 80 63q31 0 63 -20l-21 -57q-26 14 -46 14q-35 0 -52.5 -33.5t-17.5 -84.5v-190zM91 504l40 -58l37 58h69l-77 -96h-67l-72 96h70z" />
    <glyph glyph-name="Sacute" unicode="&#x15a;" horiz-adv-x="467" 
d="M30 161l63 6q8 -54 46 -85.5t104 -31.5q56 0 89.5 25t33.5 60q0 48 -58 73q-19 6 -54 16q-129 37 -166.5 61.5t-37.5 85.5q0 62 48.5 100.5t127.5 38.5q86 0 136 -41t53 -110l-64 -3q-9 94 -121 94q-58 0 -87 -20t-29 -53q0 -30 21.5 -47t97.5 -35q115 -27 155.5 -59
t40.5 -95t-51 -106t-133 -43q-99 0 -155.5 45t-59.5 124zM219 532h-51l45 96h81z" />
    <glyph glyph-name="sacute" unicode="&#x15b;" horiz-adv-x="350" 
d="M21 107l62 11q9 -76 93 -76q40 0 62 16.5t22 41.5q0 20 -13 30t-67 24q-88 21 -117.5 43t-29.5 69t34.5 76t98.5 29q68 0 101.5 -25t41.5 -78l-59 -7q-9 60 -81 60q-40 0 -59 -13.5t-19 -33.5q0 -25 30 -38l55 -17q43 -12 58.5 -16.5t39 -14.5t30.5 -19.5t13 -25t6 -37.5
q0 -49 -40.5 -81.5t-106.5 -32.5q-133 0 -155 115zM185 408h-51l45 96h81z" />
    <glyph glyph-name="Scircumflex" unicode="&#x15c;" horiz-adv-x="467" 
d="M30 161l63 6q8 -54 46 -85.5t104 -31.5q56 0 89.5 25t33.5 60q0 48 -58 73q-19 6 -54 16q-129 37 -166.5 61.5t-37.5 85.5q0 62 48.5 100.5t127.5 38.5q86 0 136 -41t53 -110l-64 -3q-9 94 -121 94q-58 0 -87 -20t-29 -53q0 -30 21.5 -47t97.5 -35q115 -27 155.5 -59
t40.5 -95t-51 -106t-133 -43q-99 0 -155.5 45t-59.5 124zM268 529l-37 59l-40 -59h-70l75 96h65l77 -96h-70z" />
    <glyph glyph-name="scircumflex" unicode="&#x15d;" horiz-adv-x="350" 
d="M21 107l62 11q9 -76 93 -76q40 0 62 16.5t22 41.5q0 20 -13 30t-67 24q-88 21 -117.5 43t-29.5 69t34.5 76t98.5 29q68 0 101.5 -25t41.5 -78l-59 -7q-9 60 -81 60q-40 0 -59 -13.5t-19 -33.5q0 -25 30 -38l55 -17q43 -12 58.5 -16.5t39 -14.5t30.5 -19.5t13 -25t6 -37.5
q0 -49 -40.5 -81.5t-106.5 -32.5q-133 0 -155 115zM219 408l-37 59l-40 -59h-70l75 96h65l77 -96h-70z" />
    <glyph glyph-name="Scedilla" unicode="&#x15e;" horiz-adv-x="467" 
d="M30 161l63 6q8 -54 46 -85.5t104 -31.5q56 0 89.5 25t33.5 60q0 48 -58 73q-19 6 -54 16q-129 37 -166.5 61.5t-37.5 85.5q0 62 48.5 100.5t127.5 38.5q86 0 136 -41t53 -110l-64 -3q-9 94 -121 94q-58 0 -87 -20t-29 -53q0 -30 21.5 -47t97.5 -35q115 -27 155.5 -59
t40.5 -95t-51 -106t-133 -43q-99 0 -155.5 45t-59.5 124zM192 -52l16 62h47l-12 -37q28 -4 43 -17.5t15 -31.5q0 -28 -25.5 -47.5t-73.5 -19.5q-14 0 -49 5l5 41q14 -1 31 -1q55 0 55 24q0 22 -52 22z" />
    <glyph glyph-name="scedilla" unicode="&#x15f;" horiz-adv-x="350" 
d="M21 107l62 11q9 -76 93 -76q40 0 62 16.5t22 41.5q0 20 -13 30t-67 24q-88 21 -117.5 43t-29.5 69t34.5 76t98.5 29q68 0 101.5 -25t41.5 -78l-59 -7q-9 60 -81 60q-40 0 -59 -13.5t-19 -33.5q0 -25 30 -38l55 -17q43 -12 58.5 -16.5t39 -14.5t30.5 -19.5t13 -25t6 -37.5
q0 -49 -40.5 -81.5t-106.5 -32.5q-133 0 -155 115zM130 -47l16 62h47l-12 -37q28 -4 43 -17.5t15 -31.5q0 -28 -25.5 -47.5t-73.5 -19.5q-14 0 -49 5l5 41q14 -1 31 -1q55 0 55 24q0 22 -52 22z" />
    <glyph glyph-name="Scaron" unicode="&#x160;" horiz-adv-x="467" 
d="M30 161l63 6q8 -54 46 -85.5t104 -31.5q56 0 89.5 25t33.5 60q0 48 -58 73q-19 6 -54 16q-129 37 -166.5 61.5t-37.5 85.5q0 62 48.5 100.5t127.5 38.5q86 0 136 -41t53 -110l-64 -3q-9 94 -121 94q-58 0 -87 -20t-29 -53q0 -30 21.5 -47t97.5 -35q115 -27 155.5 -59
t40.5 -95t-51 -106t-133 -43q-99 0 -155.5 45t-59.5 124zM184 625l40 -58l37 58h69l-77 -96h-67l-72 96h70z" />
    <glyph glyph-name="scaron" unicode="&#x161;" horiz-adv-x="350" 
d="M21 107l62 11q9 -76 93 -76q40 0 62 16.5t22 41.5q0 20 -13 30t-67 24q-88 21 -117.5 43t-29.5 69t34.5 76t98.5 29q68 0 101.5 -25t41.5 -78l-59 -7q-9 60 -81 60q-40 0 -59 -13.5t-19 -33.5q0 -25 30 -38l55 -17q43 -12 58.5 -16.5t39 -14.5t30.5 -19.5t13 -25t6 -37.5
q0 -49 -40.5 -81.5t-106.5 -32.5q-133 0 -155 115zM134 504l40 -58l37 58h69l-77 -96h-67l-72 96h70z" />
    <glyph glyph-name="Tcedilla" unicode="&#x162;" horiz-adv-x="427" 
d="M247 0h-65v442h-166v60h397v-60h-166v-442zM215 -112h-35v70h70v-70q0 -62 -59 -85l-16 24q19 11 28 23t12 38z" />
    <glyph glyph-name="tcedilla" unicode="&#x163;" horiz-adv-x="195" 
d="M181 55l8 -55q-40 -5 -47 -5q-25 0 -37.5 2.5t-25.5 13t-17.5 33.5t-4.5 62v209h-44v48h44v90l62 37v-127h62v-48h-62v-212q0 -24 4 -34t9 -11.5t22 -3.5q15 0 27 1zM126 -104h-33v62h63v-62q0 -56 -51 -78l-14 23q34 18 35 55z" />
    <glyph glyph-name="Tcaron" unicode="&#x164;" horiz-adv-x="427" 
d="M247 0h-65v442h-166v60h397v-60h-166v-442zM176 625l40 -58l37 58h69l-77 -96h-67l-72 96h70z" />
    <glyph glyph-name="tcaron" unicode="&#x165;" horiz-adv-x="261" 
d="M230 439h-32v63h63v-63q0 -67 -51 -90l-15 23q35 17 35 67zM181 55l8 -55q-7 -1 -17 -2t-17 -2t-13 -1q-25 0 -37.5 2.5t-25.5 13t-17.5 33.5t-4.5 62v209h-44v48h44v90l61 37v-127h63v-48h-63v-212q0 -23 4.5 -33.5t9 -12t21.5 -3.5q16 0 28 1z" />
    <glyph glyph-name="Tbar" unicode="&#x166;" horiz-adv-x="427" 
d="M182 0v216h-113v44h113v182h-166v60h397v-60h-166v-182h112v-44h-112v-216h-65z" />
    <glyph glyph-name="tbar" unicode="&#x167;" horiz-adv-x="195" 
d="M49 106v69h-44v47h44v93h-44v48h44v90l62 37v-127h62v-48h-62v-93h58v-47h-58v-72q0 -30 6.5 -39.5t28.5 -9.5q16 0 27 1l9 -55q-40 -5 -47 -5q-55 5 -70.5 25t-15.5 86z" />
    <glyph glyph-name="Utilde" unicode="&#x168;" horiz-adv-x="505" 
d="M383 211v291h66v-291q0 -111 -43 -162.5t-153 -56.5q-106 0 -152 51.5t-46 167.5v291h66v-291q0 -91 27.5 -123t98.5 -37q75 0 105.5 34t30.5 126zM193 539h-46v4q0 30 20.5 51.5t48.5 21.5q9 0 44.5 -14t45.5 -14q12 0 18 5.5t8 23.5h44q-1 -39 -19 -58.5t-49 -19.5
q-9 0 -45 15.5t-43 15.5q-27 0 -27 -31z" />
    <glyph glyph-name="utilde" unicode="&#x169;" horiz-adv-x="390" 
d="M338 0h-53v54q-42 -62 -116 -62q-70 0 -97.5 39t-27.5 108v224h62v-202q0 -64 15.5 -90.5t59.5 -26.5q97 0 97 124v195h60v-363zM130 418h-46v4q0 30 20.5 51.5t48.5 21.5q9 0 44.5 -14t45.5 -14q12 0 18 5.5t8 23.5h44q-1 -39 -19 -58.5t-49 -19.5q-9 0 -45 15.5
t-43 15.5q-27 0 -27 -31z" />
    <glyph glyph-name="Umacron" unicode="&#x16a;" horiz-adv-x="505" 
d="M383 211v291h66v-291q0 -111 -43 -162.5t-153 -56.5q-106 0 -152 51.5t-46 167.5v291h66v-291q0 -91 27.5 -123t98.5 -37q75 0 105.5 34t30.5 126zM368 541h-214v50h214v-50z" />
    <glyph glyph-name="umacron" unicode="&#x16b;" horiz-adv-x="390" 
d="M338 0h-53v54q-42 -62 -116 -62q-70 0 -97.5 39t-27.5 108v224h62v-202q0 -64 15.5 -90.5t59.5 -26.5q97 0 97 124v195h60v-363zM305 420h-214v50h214v-50z" />
    <glyph glyph-name="Ubreve" unicode="&#x16c;" horiz-adv-x="505" 
d="M383 211v291h66v-291q0 -111 -43 -162.5t-153 -56.5q-106 0 -152 51.5t-46 167.5v291h66v-291q0 -91 27.5 -123t98.5 -37q75 0 105.5 34t30.5 126zM313 620h43q-11 -87 -101 -87q-91 0 -102 87h42q11 -45 57 -45q29 0 42.5 10.5t18.5 34.5z" />
    <glyph glyph-name="ubreve" unicode="&#x16d;" horiz-adv-x="390" 
d="M338 0h-53v54q-42 -62 -116 -62q-70 0 -97.5 39t-27.5 108v224h62v-202q0 -64 15.5 -90.5t59.5 -26.5q97 0 97 124v195h60v-363zM257 499h43q-11 -87 -101 -87q-91 0 -102 87h42q11 -45 57 -45q29 0 42.5 10.5t18.5 34.5z" />
    <glyph glyph-name="Uring" unicode="&#x16e;" horiz-adv-x="505" 
d="M383 211v291h66v-291q0 -111 -43 -162.5t-153 -56.5q-106 0 -152 51.5t-46 167.5v291h66v-291q0 -91 27.5 -123t98.5 -37q75 0 105.5 34t30.5 126zM190 567q0 25 18 43t43 18q26 0 43 -18t17 -44t-17 -44.5t-42 -18.5q-26 0 -44 18t-18 46zM216 566q0 -16 10 -26.5
t26 -10.5q13 0 24.5 11t11.5 26q0 16 -10.5 27.5t-25.5 11.5t-25.5 -11.5t-10.5 -27.5z" />
    <glyph glyph-name="uring" unicode="&#x16f;" horiz-adv-x="390" 
d="M338 0h-53v54q-42 -62 -116 -62q-70 0 -97.5 39t-27.5 108v224h62v-202q0 -64 15.5 -90.5t59.5 -26.5q97 0 97 124v195h60v-363zM132 457q0 25 18 43t43 18q26 0 43 -18t17 -44t-17 -44.5t-42 -18.5q-26 0 -44 18t-18 46zM158 456q0 -16 10 -26.5t26 -10.5q13 0 24.5 11
t11.5 26q0 16 -10.5 27.5t-25.5 11.5t-25.5 -11.5t-10.5 -27.5z" />
    <glyph glyph-name="Udblacute" unicode="&#x170;" horiz-adv-x="505" 
d="M383 211v291h66v-291q0 -111 -43 -162.5t-153 -56.5q-106 0 -152 51.5t-46 167.5v291h66v-291q0 -91 27.5 -123t98.5 -37q75 0 105.5 34t30.5 126zM208 532h-49l42 96h79zM329 532h-51l43 96h78z" />
    <glyph glyph-name="udblacute" unicode="&#x171;" horiz-adv-x="390" 
d="M338 0h-53v54q-42 -62 -116 -62q-70 0 -97.5 39t-27.5 108v224h62v-202q0 -64 15.5 -90.5t59.5 -26.5q97 0 97 124v195h60v-363zM131 408h-49l42 96h79zM252 408h-51l43 96h78z" />
    <glyph glyph-name="Uogonek" unicode="&#x172;" horiz-adv-x="505" 
d="M268 -8q-7 -35 -7 -39q0 -24 14 -38t35 -14q24 0 59 15v-41q-41 -21 -75 -21t-55 20.5t-21 55.5q0 21 11 63q-94 7 -134 56t-40 162v291h66v-306q0 -80 30 -110t95 -35q76 0 106.5 34t30.5 126v291h66v-291q0 -103 -37.5 -156t-143.5 -63z" />
    <glyph glyph-name="uogonek" unicode="&#x173;" horiz-adv-x="390" 
d="M338 0h-14q-9 -24 -9 -48q0 -23 14 -37t35 -14q23 0 58 15v-41q-38 -21 -74 -21q-34 0 -54.5 21.5t-20.5 54.5q0 27 8 58l4 12v54q-42 -62 -117 -62q-64 5 -94 35t-30 93v243h62v-202q0 -4 -0.5 -11.5t-0.5 -10.5q0 -51 17 -70.5t59 -24.5q97 0 97 124v195h60v-363z" />
    <glyph glyph-name="Wcircumflex" unicode="&#x174;" horiz-adv-x="660" 
d="M209 0h-68l-133 502h69l76 -329q12 -54 21 -103l22 92l96 340h80l71 -255q28 -91 40 -177l104 432h65l-136 -502h-63l-123 441zM366 532l-37 59l-40 -59h-70l75 96h65l77 -96h-70z" />
    <glyph glyph-name="wcircumflex" unicode="&#x175;" horiz-adv-x="505" 
d="M177 0h-64l-112 363h64l81 -287q0 3 17 73l59 214h63l72 -280l83 280h59l-113 -363h-64l-57 217l-14 62zM295 408l-37 59l-40 -59h-70l75 96h65l77 -96h-70z" />
    <glyph glyph-name="Ycircumflex" unicode="&#x176;" horiz-adv-x="467" 
d="M261 0h-66v212l-194 290h82l99 -152q25 -37 50 -85q16 28 55 90l97 147h78l-201 -290v-212zM280 532l-37 59l-40 -59h-70l75 96h65l77 -96h-70z" />
    <glyph glyph-name="ycircumflex" unicode="&#x177;" horiz-adv-x="350" 
d="M43 -140l-7 57q28 -6 35 -6q32 0 42.5 12t31.5 62l3 15l-136 363h65l76 -210q24 -73 27 -84q11 44 24 83l78 211h62l-139 -369q-33 -85 -56 -113t-66 -28q-19 0 -40 7zM227 408l-37 59l-40 -59h-70l75 96h65l77 -96h-70z" />
    <glyph glyph-name="Ydieresis" unicode="&#x178;" horiz-adv-x="467" 
d="M261 0h-66v212l-194 290h82l99 -152q25 -37 50 -85q16 28 55 90l97 147h78l-201 -290v-212zM199 532h-64v70h64v-70zM326 532h-64v70h64v-70z" />
    <glyph glyph-name="Zacute" unicode="&#x179;" horiz-adv-x="427" 
d="M411 0h-397v62l257 321q16 22 51 59h-279v60h358v-60l-281 -349l-30 -35h321v-58zM212 532h-51l45 96h81z" />
    <glyph glyph-name="zacute" unicode="&#x17a;" horiz-adv-x="350" 
d="M335 0h-321v50l231 265q-27 -1 -70 -1h-147v49h295v-41l-233 -272q11 0 37 2t40 2h168v-54zM184 408h-51l45 96h81z" />
    <glyph glyph-name="Zdot" unicode="&#x17b;" horiz-adv-x="427" 
d="M411 0h-397v62l257 321q16 22 51 59h-279v60h358v-60l-281 -349l-30 -35h321v-58zM258 532h-76v76h76v-76z" />
    <glyph glyph-name="zdot" unicode="&#x17c;" horiz-adv-x="350" 
d="M335 0h-321v50l231 265q-27 -1 -70 -1h-147v49h295v-41l-233 -272q11 0 37 2t40 2h168v-54zM211 408h-76v76h76v-76z" />
    <glyph glyph-name="Zcaron" unicode="&#x17d;" horiz-adv-x="427" 
d="M411 0h-397v62l257 321q16 22 51 59h-279v60h358v-60l-281 -349l-30 -35h321v-58zM177 625l40 -58l37 58h69l-77 -96h-67l-72 96h70z" />
    <glyph glyph-name="zcaron" unicode="&#x17e;" horiz-adv-x="350" 
d="M335 0h-321v50l231 265q-27 -1 -70 -1h-147v49h295v-41l-233 -272q11 0 37 2t40 2h168v-54zM147 504l40 -58l37 58h69l-77 -96h-67l-72 96h70z" />
    <glyph glyph-name="longs" unicode="&#x17f;" horiz-adv-x="155" 
d="M107 0h-60v401q0 57 22.5 83t77.5 26q33 0 57 -6l-8 -55q-16 5 -36 5q-30 0 -41.5 -13.5t-11.5 -43.5v-397z" />
    <glyph glyph-name="uni018F" unicode="&#x18f;" horiz-adv-x="526" 
d="M496 257q0 -120 -58 -192.5t-173 -72.5q-113 0 -172 71.5t-59 193.5v31h391q-4 78 -47.5 121.5t-113.5 43.5q-108 0 -137 -105l-65 16q17 69 71 107.5t131 38.5q102 0 165 -69.5t67 -183.5zM427 230h-324q3 -84 46 -133t116 -49q70 0 113.5 49t48.5 133z" />
    <glyph glyph-name="uni018F" unicode="&#x4d8;" horiz-adv-x="526" 
d="M496 257q0 -120 -58 -192.5t-173 -72.5q-113 0 -172 71.5t-59 193.5v31h391q-4 78 -47.5 121.5t-113.5 43.5q-108 0 -137 -105l-65 16q17 69 71 107.5t131 38.5q102 0 165 -69.5t67 -183.5zM427 230h-324q3 -84 46 -133t116 -49q70 0 113.5 49t48.5 133z" />
    <glyph glyph-name="florin" unicode="&#x192;" horiz-adv-x="390" 
d="M15 -139l13 54q31 -7 51 -7q19 0 28.5 9.5t16.5 41.5l59 356h-69l10 48h67l10 45q8 54 29.5 78t65.5 24q26 0 75 -13l-13 -51q-9 1 -20.5 3t-19 3t-11.5 1q-22 0 -30 -9.5t-16 -45.5l-7 -35h70l-8 -48h-70l-65 -373q-9 -50 -30 -69.5t-59 -19.5t-77 8z" />
    <glyph glyph-name="Ohorn" unicode="&#x1a0;" horiz-adv-x="601" 
d="M103 244q0 -88 48 -142t122 -54q79 0 126 55.5t47 147.5q0 91 -45.5 146.5t-126.5 55.5q-83 0 -127 -54.5t-44 -154.5zM551 435h-33v71h65v-56q0 -48 -17 -73t-62 -49q8 -33 8 -78q0 -120 -70.5 -189t-177.5 -69q-97 0 -163.5 73.5t-66.5 170.5q0 125 63.5 199.5
t176.5 74.5q77 0 137 -42t85 -113q31 17 43 33t12 47z" />
    <glyph glyph-name="ohorn" unicode="&#x1a1;" horiz-adv-x="460" 
d="M86 182q0 -65 28.5 -102.5t79.5 -37.5q49 0 77.5 37t28.5 104q0 63 -28.5 100.5t-77.5 37.5q-50 0 -79 -36t-29 -103zM404 301h-33v71h65v-57q0 -46 -15.5 -71t-56.5 -48v-9q0 -92 -45.5 -143.5t-124.5 -51.5t-125 50.5t-46 139.5t47 139t124 50q65 0 110 -37.5
t58 -107.5q23 15 32.5 30.5t9.5 44.5z" />
    <glyph glyph-name="Uhorn" unicode="&#x1af;" horiz-adv-x="597" 
d="M537 429h-33v73h65v-56q0 -134 -120 -139v-96q0 -109 -43.5 -164t-152.5 -55q-106 0 -152 51.5t-46 167.5v291h66v-291q0 -86 28.5 -123t97.5 -37q77 0 106.5 35t29.5 125v291h66v-168q43 2 65.5 23.5t22.5 71.5z" />
    <glyph glyph-name="uhorn" unicode="&#x1b0;" horiz-adv-x="469" 
d="M413 292h-33v71h68v-56q0 -126 -110 -137v-170h-53v54q-42 -62 -116 -62q-69 0 -97 37.5t-28 109.5v224h62v-202q0 -68 15 -92.5t60 -24.5q97 0 97 124v195h60v-167q38 7 56.5 27.5t18.5 68.5z" />
    <glyph glyph-name="uni01CD" unicode="&#x1cd;" horiz-adv-x="467" 
d="M70 0h-71l192 502h73l204 -502h-76l-57 152h-210zM198 352l-53 -147h169l-53 139q-34 96 -36 104q-24 -87 -27 -96zM190 624l40 -58l37 58h69l-77 -96h-67l-72 96h70z" />
    <glyph glyph-name="uni01CE" unicode="&#x1ce;" horiz-adv-x="390" 
d="M282 44q-60 -52 -133 -52q-58 0 -90.5 28.5t-32.5 75.5q0 36 18.5 60t50 35.5t62.5 17t67.5 11t53.5 11.5l1 15q0 75 -89 75q-42 0 -62.5 -15.5t-30.5 -54.5l-61 8q11 57 50.5 84.5t114.5 27.5q87 0 113.5 -33t26.5 -105v-80q0 -86 2.5 -106.5t15.5 -46.5h-64
q-7 14 -13 44zM278 160v22q-30 -13 -101 -22q-50 -6 -66 -19.5t-20 -42.5q0 -26 19.5 -41.5t52.5 -15.5q115 0 115 119zM168 504l40 -58l37 58h69l-77 -96h-67l-72 96h70z" />
    <glyph glyph-name="uni01CF" unicode="&#x1cf;" horiz-adv-x="195" 
d="M132 0h-67v502h67v-502zM61 624l40 -58l37 58h69l-77 -96h-67l-72 96h70z" />
    <glyph glyph-name="uni01D0" unicode="&#x1d0;" horiz-adv-x="155" 
d="M107 0h-60v363h60v-363zM43 504l40 -58l37 58h69l-77 -96h-67l-72 96h70z" />
    <glyph glyph-name="uni01D1" unicode="&#x1d1;" horiz-adv-x="545" 
d="M34 244q0 123 66 194.5t174 71.5q111 0 174.5 -75t63.5 -197q0 -107 -67.5 -176.5t-164.5 -69.5q-109 0 -177.5 72.5t-68.5 179.5zM103 244q0 -90 47.5 -143t122.5 -53q77 0 125 54t48 149q0 91 -47.5 146.5t-124.5 55.5q-74 0 -122.5 -51t-48.5 -158zM238 624l40 -58
l37 58h69l-77 -96h-67l-72 96h70z" />
    <glyph glyph-name="uni01D2" unicode="&#x1d2;" horiz-adv-x="390" 
d="M23 182q0 89 47 139t124 50q76 0 123 -49.5t47 -134.5q0 -97 -46.5 -143.5t-123.5 -51.5q-78 0 -124.5 49.5t-46.5 140.5zM86 182q0 -68 30 -104t78 -36q47 0 76.5 36.5t29.5 104.5q0 65 -29.5 101.5t-76.5 36.5q-48 0 -78 -36.5t-30 -102.5zM155 504l40 -58l37 58h69
l-77 -96h-67l-72 96h70z" />
    <glyph glyph-name="uni01D3" unicode="&#x1d3;" horiz-adv-x="505" 
d="M383 211v291h66v-291q0 -111 -43 -162.5t-153 -56.5q-106 0 -152 51.5t-46 167.5v291h66v-291q0 -91 27.5 -123t98.5 -37q75 0 105.5 34t30.5 126zM222 624l40 -58l37 58h69l-77 -96h-67l-72 96h70z" />
    <glyph glyph-name="uni01D4" unicode="&#x1d4;" horiz-adv-x="390" 
d="M338 0h-53v54q-42 -62 -116 -62q-70 0 -97.5 39t-27.5 108v224h62v-202q0 -64 15.5 -90.5t59.5 -26.5q97 0 97 124v195h60v-363zM160 504l40 -58l37 58h69l-77 -96h-67l-72 96h70z" />
    <glyph glyph-name="uni01D5" unicode="&#x1d5;" horiz-adv-x="505" 
d="M383 211v291h66v-291q0 -111 -43 -162.5t-153 -56.5q-106 0 -152 51.5t-46 167.5v291h66v-291q0 -91 27.5 -123t98.5 -37q75 0 105.5 34t30.5 126zM346 630v-41h-178v41h178zM346 561v-50h-47v50h47zM215 561v-50h-47v50h47z" />
    <glyph glyph-name="uni01D6" unicode="&#x1d6;" horiz-adv-x="390" 
d="M338 0h-53v54q-42 -62 -116 -62q-70 0 -97.5 39t-27.5 108v224h62v-202q0 -64 15.5 -90.5t59.5 -26.5q97 0 97 124v195h60v-363zM161 434h-64v70h64v-70zM288 434h-64v70h64v-70zM299 546h-214v50h214v-50z" />
    <glyph glyph-name="uni01D7" unicode="&#x1d7;" horiz-adv-x="505" 
d="M383 211v291h66v-291q0 -111 -43 -162.5t-153 -56.5q-106 0 -152 51.5t-46 167.5v291h66v-291q0 -91 27.5 -123t98.5 -37q75 0 105.5 34t30.5 126zM266 630h77l-79 -61h-43zM346 561v-50h-47v50h47zM215 561v-50h-47v50h47z" />
    <glyph glyph-name="uni01D8" unicode="&#x1d8;" horiz-adv-x="390" 
d="M338 0h-53v54q-42 -62 -116 -62q-70 0 -97.5 39t-27.5 108v224h62v-202q0 -64 15.5 -90.5t59.5 -26.5q97 0 97 124v195h60v-363zM161 434h-64v70h64v-70zM288 434h-64v70h64v-70zM205 534h-51l45 96h81z" />
    <glyph glyph-name="uni01D9" unicode="&#x1d9;" horiz-adv-x="505" 
d="M383 211v291h66v-291q0 -111 -43 -162.5t-153 -56.5q-106 0 -152 51.5t-46 167.5v291h66v-291q0 -91 27.5 -123t98.5 -37q75 0 105.5 34t30.5 126zM346 561v-50h-47v50h47zM285 630h50l-56 -61h-48l-52 61h51l27 -34zM215 561v-50h-47v50h47z" />
    <glyph glyph-name="uni01DA" unicode="&#x1da;" horiz-adv-x="390" 
d="M338 0h-53v54q-42 -62 -116 -62q-70 0 -97.5 39t-27.5 108v224h62v-202q0 -64 15.5 -90.5t59.5 -26.5q97 0 97 124v195h60v-363zM161 434h-64v70h64v-70zM288 434h-64v70h64v-70zM160 630l40 -58l37 58h69l-77 -96h-67l-72 96h70z" />
    <glyph glyph-name="uni01DB" unicode="&#x1db;" horiz-adv-x="505" 
d="M383 211v291h66v-291q0 -111 -43 -162.5t-153 -56.5q-106 0 -152 51.5t-46 167.5v291h66v-291q0 -91 27.5 -123t98.5 -37q75 0 105.5 34t30.5 126zM346 561v-50h-47v50h47zM248 630l45 -61h-43l-79 61h77zM215 561v-50h-47v50h47z" />
    <glyph glyph-name="uni01DC" unicode="&#x1dc;" horiz-adv-x="390" 
d="M338 0h-53v54q-42 -62 -116 -62q-70 0 -97.5 39t-27.5 108v224h62v-202q0 -64 15.5 -90.5t59.5 -26.5q97 0 97 124v195h60v-363zM161 434h-64v70h64v-70zM288 434h-64v70h64v-70zM183 630l47 -96h-50l-80 96h83z" />
    <glyph glyph-name="Aringacute" unicode="&#x1fa;" horiz-adv-x="467" 
d="M70 0h-71l192 502h73l204 -502h-76l-57 152h-210zM198 352l-53 -147h169l-53 139q-34 96 -36 104q-24 -87 -27 -96zM163 547q0 25 19 43.5t43 18.5q25 0 43.5 -18.5t18.5 -44.5t-18 -44.5t-43 -18.5q-26 0 -44.5 18.5t-18.5 45.5zM190 547q0 -16 10 -26.5t26 -10.5
q15 0 26.5 10.5t11.5 25.5q0 16 -11 26.5t-27 10.5q-15 0 -25.5 -10.5t-10.5 -25.5zM243 609h-52l46 96h80z" />
    <glyph glyph-name="aringacute" unicode="&#x1fb;" horiz-adv-x="390" 
d="M282 44q-60 -52 -133 -52q-58 0 -90.5 28.5t-32.5 75.5q0 36 18.5 60t50 35.5t62.5 17t67.5 11t53.5 11.5l1 15q0 75 -89 75q-42 0 -62.5 -15.5t-30.5 -54.5l-61 8q11 57 50.5 84.5t114.5 27.5q87 0 113.5 -33t26.5 -105v-80q0 -86 2.5 -106.5t15.5 -46.5h-64
q-7 14 -13 44zM278 160v22q-30 -13 -101 -22q-50 -6 -66 -19.5t-20 -42.5q0 -26 19.5 -41.5t52.5 -15.5q115 0 115 119zM132 457q0 25 18 43t41 18q26 0 44 -18t18 -44t-17.5 -44.5t-41.5 -18.5q-26 0 -44 18t-18 46zM156 456q0 -16 11 -26.5t27 -10.5q13 0 24.5 11t11.5 26
q0 16 -10.5 27.5t-25.5 11.5q-16 0 -27 -11.5t-11 -27.5zM219 561h-51l47 97h79z" />
    <glyph glyph-name="AEacute" unicode="&#x1fc;" horiz-adv-x="700" 
d="M72 0h-72l240 502h412v-60h-252v-154h235v-58h-235v-172h263v-58h-328v145h-195zM285 442l-117 -239h167v239h-50zM352 532h-51l45 96h81z" />
    <glyph glyph-name="aeacute" unicode="&#x1fd;" horiz-adv-x="623" 
d="M527 119l66 -8q-38 -119 -160 -119q-86 0 -134 66q-73 -66 -152 -66q-57 0 -90.5 29.5t-33.5 74.5q0 48 35.5 76t124.5 39q48 7 88 18v14q0 43 -18 60.5t-64 17.5q-47 0 -67 -14.5t-30 -55.5l-58 7q13 58 50 85.5t106 27.5q97 0 126 -49q42 49 117 49q79 0 120 -54.5
t41 -129.5v-21h-263q0 -65 25 -91.5t79 -32.5q36 0 60.5 20.5t31.5 56.5zM331 217h200q-9 104 -98 104q-43 0 -70.5 -28t-31.5 -76zM272 182q-23 -8 -111 -26q-41 -6 -56.5 -20t-15.5 -38q0 -26 18.5 -41.5t52.5 -15.5q63 0 87.5 34t24.5 107zM331 408h-51l45 96h81z" />
    <glyph glyph-name="Oslashacute" unicode="&#x1fe;" horiz-adv-x="545" 
d="M427 455l57 64l34 -28l-61 -69q34 -51 44 -88t10 -95q0 -108 -67.5 -177.5t-162.5 -69.5q-51 0 -83.5 9.5t-78.5 41.5l-57 -63l-34 28l61 68q-34 51 -45 86.5t-11 87.5q0 117 67.5 188.5t172.5 71.5q86 0 154 -55zM132 124l254 284q-33 26 -56.5 35.5t-56.5 9.5
q-77 0 -125 -52.5t-48 -149.5q0 -39 6 -65t26 -62zM414 373l-253 -283q49 -42 111 -42q75 0 123 54t48 145q0 74 -29 126zM283 532h-51l45 96h81z" />
    <glyph glyph-name="oslashacute" unicode="&#x1ff;" horiz-adv-x="427" 
d="M314 342l35 43l31 -23l-36 -48q25 -35 32.5 -62t7.5 -71q0 -90 -47.5 -139.5t-121.5 -49.5q-56 0 -97 28l-36 -47l-33 25l37 46q-43 52 -43 132q0 97 47.5 146t121.5 49q54 0 102 -29zM125 96l155 200q-31 25 -65 25q-48 0 -78 -36.5t-30 -102.5q0 -51 18 -86zM306 264
l-154 -200q25 -22 59 -22q49 0 79.5 36t30.5 104q0 50 -15 82zM233 408h-51l45 96h81z" />
    <glyph glyph-name="uni0259" unicode="&#x259;" horiz-adv-x="390" 
d="M364 184q0 -88 -45.5 -140t-123.5 -52q-77 0 -121.5 51.5t-44.5 137.5v16h271q-3 57 -33 90.5t-77 33.5q-68 0 -94 -75l-66 7q32 118 160 118q82 0 128 -49t46 -138zM296 147h-203q5 -53 33 -79t68 -26q43 0 72 29t30 76z" />
    <glyph glyph-name="uni0259" unicode="&#x4d9;" horiz-adv-x="390" 
d="M364 184q0 -88 -45.5 -140t-123.5 -52q-77 0 -121.5 51.5t-44.5 137.5v16h271q-3 57 -33 90.5t-77 33.5q-68 0 -94 -75l-66 7q32 118 160 118q82 0 128 -49t46 -138zM296 147h-203q5 -53 33 -79t68 -26q43 0 72 29t30 76z" />
    <glyph glyph-name="circumflex" unicode="&#x2c6;" horiz-adv-x="233" 
d="M155 408l-37 59l-40 -59h-70l75 96h65l77 -96h-70z" />
    <glyph glyph-name="caron" unicode="&#x2c7;" horiz-adv-x="233" 
d="M84 504l40 -58l37 58h69l-77 -96h-67l-72 96h70z" />
    <glyph glyph-name="overscore.001" unicode="&#x2c9;" horiz-adv-x="233" 
d="M223 420h-214v50h214v-50z" />
    <glyph glyph-name="breve" unicode="&#x2d8;" horiz-adv-x="233" 
d="M175 499h43q-11 -87 -101 -87q-91 0 -102 87h42q11 -45 57 -45q29 0 42.5 10.5t18.5 34.5z" />
    <glyph glyph-name="dotaccent" unicode="&#x2d9;" horiz-adv-x="233" 
d="M154 408h-76v76h76v-76z" />
    <glyph glyph-name="ring" unicode="&#x2da;" horiz-adv-x="233" 
d="M56 457q0 25 18 43t43 18q26 0 43 -18t17 -44t-17 -44.5t-42 -18.5q-26 0 -44 18t-18 46zM82 456q0 -16 10 -26.5t26 -10.5q13 0 24.5 11t11.5 26q0 16 -10.5 27.5t-25.5 11.5t-25.5 -11.5t-10.5 -27.5z" />
    <glyph glyph-name="ogonek" unicode="&#x2db;" horiz-adv-x="233" 
d="M77 8h42q-14 -33 -14 -56t14 -37t36 -14t57 15v-41q-37 -21 -74 -21q-35 0 -55 20.5t-20 55.5q0 30 14 78z" />
    <glyph glyph-name="tilde" unicode="&#x2dc;" horiz-adv-x="233" 
d="M48 418h-46v4q0 30 20.5 51.5t48.5 21.5q9 0 44.5 -14t45.5 -14q12 0 18 5.5t8 23.5h44q-1 -39 -19 -58.5t-49 -19.5q-9 0 -45 15.5t-43 15.5q-27 0 -27 -31z" />
    <glyph glyph-name="hungarumlaut" unicode="&#x2dd;" horiz-adv-x="233" 
d="M69 408h-49l42 96h79zM190 408h-51l43 96h78z" />
    <glyph glyph-name="combininggraveaccent" unicode="&#x300;" horiz-adv-x="0" 
d="M-100 624l45 -94h-49l-78 94h82z" />
    <glyph glyph-name="combiningacuteaccent" unicode="&#x301;" horiz-adv-x="0" 
d="M-131 530l47 94h83l-78 -94h-52z" />
    <glyph glyph-name="combiningtildeaccent" unicode="&#x303;" horiz-adv-x="0" 
d="M-265 530h-45q0 35 18.5 56t51.5 21q8 0 42 -14t46 -14q23 0 26 29h43q-1 -78 -65 -78q-11 0 -47.5 15.5t-43.5 15.5q-26 0 -26 -31z" />
    <glyph glyph-name="combininghookabove" unicode="&#x309;" horiz-adv-x="0" 
d="M-113 554l24 5q19 3 19 14q0 21 -55 21q-17 0 -31 -1l-5 31q36 4 49 4q41 0 70 -15.5t29 -36.5q0 -35 -63 -43v-16h-37v37z" />
    <glyph glyph-name="combiningdotbelow" unicode="&#x323;" horiz-adv-x="0" 
d="M-197 -111h-70v70h70v-70z" />
    <glyph glyph-name="tonos" unicode="&#x384;" horiz-adv-x="233" 
d="M127 408h-51l45 96h81z" />
    <glyph glyph-name="dieresistonos" unicode="&#x385;" horiz-adv-x="233" 
d="M75 420l44 96h63l-69 -96h-38zM182 420v65h58v-65h-58zM-7 420v65h58v-65h-58z" />
    <glyph glyph-name="Alphatonos" unicode="&#x386;" horiz-adv-x="468" 
d="M70 0h-70l191 502h73l205 -502h-76l-58 152h-210zM198 352l-53 -147h169l-53 139q-25 68 -35 104q-14 -57 -28 -96zM70 406h-51l45 96h81z" />
    <glyph glyph-name="anoteleia" unicode="&#x387;" horiz-adv-x="195" 
d="M133 293h-70v70h70v-70z" />
    <glyph glyph-name="Epsilontonos" unicode="&#x388;" horiz-adv-x="548" 
d="M511 0h-373v502h361v-60h-296v-154h278v-58h-278v-172h308v-58zM21 406h-51l45 96h81z" />
    <glyph glyph-name="Etatonos" unicode="&#x389;" horiz-adv-x="587" 
d="M189 0h-65v502h65v-207h260v207h68v-502h-68v237h-260v-237zM21 406h-50l44 96h109z" />
    <glyph glyph-name="Iotatonos" unicode="&#x38a;" horiz-adv-x="268" 
d="M189 0h-65v502h65v-502zM21 406h-50l44 96h109z" />
    <glyph glyph-name="Omicrontonos" unicode="&#x38c;" horiz-adv-x="541" 
d="M29 244q0 124 67.5 195t174.5 71q106 0 172.5 -72t66.5 -188q0 -115 -66.5 -186.5t-172.5 -71.5q-108 0 -175 74t-67 167v11zM98 244q0 -88 47 -142t123 -54q78 0 125.5 54.5t47.5 148.5t-47 148t-123 54q-77 0 -125 -52.5t-48 -156.5zM21 406h-51l45 96h81z" />
    <glyph glyph-name="Upsilontonos" unicode="&#x38e;" horiz-adv-x="600" 
d="M390 0h-67v212l-192 290h79l99 -152q24 -35 50 -85l55 90l98 147h77l-199 -290v-212zM21 406h-51l45 96h81z" />
    <glyph glyph-name="Omegatonos" unicode="&#x38f;" horiz-adv-x="526" 
d="M36 0v58h110q-104 89 -104 214q0 103 61 170.5t163 67.5q100 0 159 -63.5t64 -174.5q0 -125 -104 -214h110v-58h-195v56q121 56 121 204q0 84 -43.5 138.5t-111.5 54.5q-69 0 -112 -53.5t-43 -134.5q0 -153 121 -209v-56h-196zM21 406h-51l45 96h81z" />
    <glyph glyph-name="iotadieresistonos" unicode="&#x390;" horiz-adv-x="155" 
d="M107 0h-60v363h60v-363zM35 420l44 96h63l-67 -96h-40zM142 420v65h60v-65h-60zM-47 420v65h60v-65h-60z" />
    <glyph glyph-name="Alpha" unicode="&#x391;" horiz-adv-x="467" 
d="M70 0h-71l192 502h73l204 -502h-76l-57 152h-210zM198 352l-53 -147h169l-53 139q-34 96 -36 104q-24 -87 -27 -96z" />
    <glyph glyph-name="Beta" unicode="&#x392;" horiz-adv-x="467" 
d="M243 0h-192v502h188q80 0 123.5 -35.5t43.5 -94.5q0 -72 -70 -106q45 -12 69 -44t24 -76q0 -146 -186 -146zM118 442v-150h107q64 0 90 16t26 57q-6 42 -26 59.5t-83 17.5h-114zM118 231v-173h125q119 0 119 88q0 85 -129 85h-115z" />
    <glyph glyph-name="Gamma" unicode="&#x393;" horiz-adv-x="385" 
d="M56 0v502h314v-60h-249v-442h-65z" />
    <glyph glyph-name="Delta" unicode="&#x394;" horiz-adv-x="468" 
d="M468 0h-468l191 502h73zM198 352l-107 -294h279l-109 286q-30 80 -36 104q-10 -48 -27 -96z" />
    <glyph glyph-name="Epsilon" unicode="&#x395;" horiz-adv-x="467" 
d="M429 0h-373v502h362v-60h-297v-154h278v-58h-278v-172h308v-58z" />
    <glyph glyph-name="Zeta" unicode="&#x396;" horiz-adv-x="427" 
d="M411 0h-397v62l257 321q16 22 51 59h-279v60h358v-60l-281 -349l-30 -35h321v-58z" />
    <glyph glyph-name="Eta" unicode="&#x397;" horiz-adv-x="505" 
d="M121 0h-65v502h65v-207h262v207h66v-502h-66v237h-262v-237z" />
    <glyph glyph-name="Theta" unicode="&#x398;" horiz-adv-x="545" 
d="M33 244q0 124 66.5 195t173.5 71q106 0 172.5 -72t66.5 -188q0 -115 -66.5 -186.5t-172.5 -71.5q-108 0 -174 74t-66 167v11zM100 244q0 -88 47.5 -142t124.5 -54t124 54.5t47 148.5t-47 148t-123 54q-77 0 -125 -52.5t-48 -156.5zM371 222h-197v58h197v-58z" />
    <glyph glyph-name="Iota" unicode="&#x399;" horiz-adv-x="195" 
d="M132 0h-67v502h67v-502z" />
    <glyph glyph-name="Kappa" unicode="&#x39a;" horiz-adv-x="467" 
d="M118 0h-67v502h67v-250l248 250h90l-210 -203l221 -299h-89l-177 253l-83 -79v-174z" />
    <glyph glyph-name="Lambda" unicode="&#x39b;" horiz-adv-x="468" 
d="M201 502h66l195 -502h-71l-131 364q-4 12 -14 40.5t-13 42.5q-8 -32 -25 -83l-137 -364h-66z" />
    <glyph glyph-name="Mu" unicode="&#x39c;" horiz-adv-x="583" 
d="M117 0h-66v502h101l119 -356q5 -17 13 -41.5t10 -32.5q18 55 27 81l120 349h90v-502h-64v420l-146 -420h-61l-143 427v-427z" />
    <glyph glyph-name="Nu" unicode="&#x39d;" horiz-adv-x="505" 
d="M117 0h-63v502h67l264 -395v395h63v-502h-69l-262 393v-393z" />
    <glyph glyph-name="Xi" unicode="&#x39e;" horiz-adv-x="455" 
d="M47 442v60h361v-60h-361zM78 222v58h299v-58h-299zM37 0v58h381v-58h-381z" />
    <glyph glyph-name="Omicron" unicode="&#x39f;" horiz-adv-x="545" 
d="M34 244q0 123 66 194.5t174 71.5q111 0 174.5 -75t63.5 -197q0 -107 -67.5 -176.5t-164.5 -69.5q-109 0 -177.5 72.5t-68.5 179.5zM103 244q0 -90 47.5 -143t122.5 -53q77 0 125 54t48 149q0 91 -47.5 146.5t-124.5 55.5q-74 0 -122.5 -51t-48.5 -158z" />
    <glyph glyph-name="Pi" unicode="&#x3a0;" horiz-adv-x="505" 
d="M121 0h-65v502h393v-502h-66v442h-262v-442z" />
    <glyph glyph-name="Rho" unicode="&#x3a1;" horiz-adv-x="467" 
d="M120 0h-65v502h189q192 0 192 -146q0 -152 -186 -152h-130v-204zM120 442v-178h130q119 0 119 91q0 47 -30 67t-92 20h-127z" />
    <glyph glyph-name="Sigma" unicode="&#x3a3;" horiz-adv-x="433" 
d="M50 502h342v-60h-271l172 -182l-172 -202h285v-58h-356v69l165 191l-165 174v68z" />
    <glyph glyph-name="Tau" unicode="&#x3a4;" horiz-adv-x="427" 
d="M247 0h-65v442h-166v60h397v-60h-166v-442z" />
    <glyph glyph-name="Upsilon" unicode="&#x3a5;" horiz-adv-x="467" 
d="M261 0h-66v212l-194 290h82l99 -152q25 -37 50 -85q16 28 55 90l97 147h78l-201 -290v-212z" />
    <glyph glyph-name="Phi" unicode="&#x3a6;" horiz-adv-x="559" 
d="M246 454v63h67v-63q102 -5 159.5 -59.5t57.5 -137.5q0 -91 -59.5 -144t-157.5 -58v-74h-67v74q-99 4 -158 58.5t-59 139.5q0 87 56.5 142t160.5 59zM246 112v285q-70 0 -109 -38t-39 -106q0 -66 41.5 -103.5t106.5 -37.5zM313 397v-285q70 1 109.5 38.5t39.5 103.5
q0 65 -38.5 104t-110.5 39z" />
    <glyph glyph-name="Chi" unicode="&#x3a7;" horiz-adv-x="467" 
d="M83 0h-81l195 261l-170 241h78l91 -130q36 -51 41 -62q15 28 38 59l102 133h72l-176 -237l189 -265h-82l-126 180q-9 12 -22 32l-23 -37z" />
    <glyph glyph-name="Psi" unicode="&#x3a8;" horiz-adv-x="586" 
d="M43 355v147h67v-137q0 -77 35.5 -111t113.5 -43v291h65v-291q76 5 113.5 42t37.5 120v129h66v-143q0 -203 -217 -204v-155h-65v155q-216 1 -216 200z" />
    <glyph glyph-name="Omega" unicode="&#x3a9;" horiz-adv-x="524" 
d="M34 0v58h108q-102 90 -102 214q0 103 61 170.5t163 67.5q99 0 159.5 -64.5t60.5 -173.5q0 -125 -104 -214h110v-58h-195v56q123 56 123 204q0 84 -43 138.5t-111 54.5q-71 0 -114 -53.5t-43 -134.5q0 -153 122 -209v-56h-195z" />
    <glyph glyph-name="Iotadieresis" unicode="&#x3aa;" horiz-adv-x="195" 
d="M132 0h-67v502h67v-502zM65 532h-64v70h64v-70zM192 532h-64v70h64v-70z" />
    <glyph glyph-name="Upsilondieresis" unicode="&#x3ab;" horiz-adv-x="467" 
d="M261 0h-66v212l-194 290h82l99 -152q25 -37 50 -85q16 28 55 90l97 147h78l-201 -290v-212zM199 532h-64v70h64v-70zM326 532h-64v70h64v-70z" />
    <glyph glyph-name="alphatonos" unicode="&#x3ac;" horiz-adv-x="405" 
d="M315 363h63q-25 -80 -43 -181q21 -127 43 -182h-61q-16 38 -22 65q-30 -73 -119 -73q-69 0 -109.5 51t-40.5 139q0 90 40.5 139.5t110.5 49.5q76 0 119 -70q8 20 19 62zM188 321q-44 0 -70 -36.5t-26 -102.5t24.5 -103t67.5 -37t70.5 37.5t27.5 104.5q0 66 -25 101.5
t-69 35.5zM211 408h-51l45 96h81z" />
    <glyph glyph-name="epsilontonos" unicode="&#x3ad;" horiz-adv-x="313" 
d="M282 322l-43 -35q-40 30 -78 30q-29 0 -43.5 -14.5t-14.5 -35.5q0 -24 21.5 -40t58.5 -16q11 0 18 1v-51h-17q-86 0 -86 -62q0 -23 19 -40t45 -17q48 0 90 44l44 -36q-55 -58 -135 -58q-61 0 -94 31t-33 76q0 60 59 89q-50 27 -50 78q0 44 31 74.5t89 30.5q73 0 119 -49z
M176 408h-51l45 96h81z" />
    <glyph glyph-name="etatonos" unicode="&#x3ae;" horiz-adv-x="390" 
d="M110 0h-62v363h55v-53q37 61 115 61q67 0 96 -36t29 -112v-362h-62v361q0 50 -18 72.5t-59 22.5q-94 0 -94 -119v-198zM211 408h-51l45 96h81z" />
    <glyph glyph-name="iotatonos" unicode="&#x3af;" horiz-adv-x="155" 
d="M107 0h-60v363h60v-363zM85 408h-51l45 96h81z" />
    <glyph glyph-name="upsilondieresistonos" unicode="&#x3b0;" horiz-adv-x="383" 
d="M47 148v215h60v-215q0 -52 24 -79t60 -27q84 11 84 103v218h62v-214q0 -78 -39 -117.5t-108 -39.5q-77 6 -110 44.5t-33 111.5zM151 420l44 96h63l-69 -96h-38zM258 420v65h58v-65h-58zM69 420v65h58v-65h-58z" />
    <glyph glyph-name="alpha" unicode="&#x3b1;" horiz-adv-x="405" 
d="M315 363h63q-25 -80 -43 -181q21 -127 43 -182h-61q-16 38 -22 65q-30 -73 -119 -73q-69 0 -109.5 51t-40.5 139q0 90 40.5 139.5t110.5 49.5q76 0 119 -70q8 20 19 62zM188 321q-44 0 -70 -36.5t-26 -102.5t24.5 -103t67.5 -37t70.5 37.5t27.5 104.5q0 66 -25 101.5
t-69 35.5z" />
    <glyph glyph-name="beta" unicode="&#x3b2;" horiz-adv-x="404" 
d="M110 47v-186h-62v483q0 79 39 122.5t115 43.5q65 0 102 -37.5t37 -88.5q0 -45 -27.5 -74t-67.5 -35q60 -5 92.5 -41t32.5 -93q0 -59 -39.5 -104t-108.5 -45q-77 0 -113 55zM163 251v44q122 0 122 85q0 34 -25 57t-62 23q-51 0 -69.5 -28.5t-18.5 -97.5v-138
q0 -76 23.5 -118t81.5 -42q42 0 67 29.5t25 73.5q-4 54 -34.5 83t-85.5 29h-24z" />
    <glyph glyph-name="gamma" unicode="&#x3b3;" horiz-adv-x="350" 
d="M142 0l-134 363h64l103 -286l104 286h63l-137 -363v-139h-63v139z" />
    <glyph glyph-name="delta" unicode="&#x3b4;" horiz-adv-x="390" 
d="M58 456v46h276v-52h-193q41 -38 109 -85q66 -46 90.5 -84.5t24.5 -103.5q0 -86 -47 -135.5t-124 -49.5q-80 0 -124 52.5t-44 131.5q0 84 42.5 132t107.5 50q-15 11 -118 98zM86 175q0 -58 31.5 -95.5t78.5 -37.5q45 0 75.5 34t30.5 100q0 62 -29.5 98t-77.5 36
q-50 0 -79.5 -38.5t-29.5 -96.5z" />
    <glyph glyph-name="epsilon" unicode="&#x3b5;" horiz-adv-x="313" 
d="M282 322l-43 -35q-40 30 -78 30q-29 0 -43.5 -14.5t-14.5 -35.5q0 -24 21.5 -40t58.5 -16q11 0 18 1v-51h-17q-86 0 -86 -62q0 -23 19 -40t45 -17q48 0 90 44l44 -36q-55 -58 -135 -58q-61 0 -94 31t-33 76q0 60 59 89q-50 27 -50 78q0 44 31 74.5t89 30.5q73 0 119 -49z
" />
    <glyph glyph-name="zeta" unicode="&#x3b6;" horiz-adv-x="308" 
d="M79 450v52h223v-42q-89 -57 -152.5 -149.5t-63.5 -169.5q0 -41 18 -60t59 -24q69 -7 100.5 -25.5t31.5 -66.5q-2 -51 -36.5 -81.5t-85.5 -30.5h-11l18 56q57 8 57 49q-6 25 -20 33.5t-63 8.5q-128 0 -128 145q0 78 57.5 164.5t139.5 140.5h-144z" />
    <glyph glyph-name="eta" unicode="&#x3b7;" horiz-adv-x="390" 
d="M110 0h-62v363h55v-53q37 61 115 61q67 0 96 -36t29 -112v-362h-62v361q0 50 -18 72.5t-59 22.5q-94 0 -94 -119v-198z" />
    <glyph glyph-name="theta" unicode="&#x3b8;" horiz-adv-x="390" 
d="M30 251q0 259 165 259q163 0 163 -259t-163 -259q-165 0 -165 259zM96 275h198q-4 102 -29 143.5t-70 41.5q-96 0 -99 -185zM294 225h-198q3 -183 99 -183q97 0 99 183z" />
    <glyph glyph-name="iota" unicode="&#x3b9;" horiz-adv-x="155" 
d="M107 0h-60v363h60v-363z" />
    <glyph glyph-name="kappa" unicode="&#x3ba;" horiz-adv-x="350" 
d="M47 0v363h59v-144l148 144h82l-162 -151l176 -212h-78l-141 170l-25 -21v-149h-59z" />
    </font>
</defs>
</svg>
