<?xml version="1.0" standalone="no"?>
<!DOCTYPE svg PUBLIC "-//W3C//DTD SVG 1.1//EN" "http://www.w3.org/Graphics/SVG/1.1/DTD/svg11.dtd" >
<svg xmlns="http://www.w3.org/2000/svg" xmlns:xlink="http://www.w3.org/1999/xlink" version="1.1">
<metadata>
Created by FontForge 20201107 at Wed Jul 16 03:23:44 2008
 By 
Copyright (c) 2008 by BPG InfoTech. All rights reserved.
</metadata>
<defs>
<font id="BPGNinoMedium" horiz-adv-x="411" >
  <font-face 
    font-family="BPG Nino Medium"
    font-weight="500"
    font-style="italic"
    font-stretch="normal"
    units-per-em="1000"
    panose-1="2 0 5 3 0 0 0 2 0 4"
    ascent="720"
    descent="-280"
    x-height="467"
    cap-height="644"
    bbox="-27 -281 1138 835"
    underline-thickness="24"
    underline-position="-49"
    slope="-25"
    unicode-range="U+0020-2219"
  />
<missing-glyph horiz-adv-x="847" 
d="M165 614v-620h559v620h-559zM737 -25h-586v658h586v-658z" />
    <glyph glyph-name=".notdef" horiz-adv-x="847" 
d="M165 614v-620h559v620h-559zM737 -25h-586v658h586v-658z" />
    <glyph glyph-name=".null" horiz-adv-x="0" 
 />
    <glyph glyph-name="nonmarkingreturn" horiz-adv-x="314" 
 />
    <glyph glyph-name="space" unicode=" " horiz-adv-x="244" 
 />
    <glyph glyph-name="exclam" unicode="!" horiz-adv-x="272" 
d="M159 176h-55v354v181h81l-26 -182v-353zM181 2h-74v71h74v-71z" />
    <glyph glyph-name="quotedbl" unicode="&#x22;" horiz-adv-x="301" 
d="M243 533h-20l-21 106v84h62v-85zM96 533h-24l-20 105v85h62v-84z" />
    <glyph glyph-name="numbersign" unicode="#" horiz-adv-x="882" 
d="M646 83h212v-48h-212v48zM750 401q-29 0 -48.5 -21.5t-19.5 -48.5q0 -31 19 -52t49 -21q35 0 53.5 19.5t18.5 52.5q0 29 -20 50t-52 21zM750 450q54 0 85.5 -36t31.5 -85q0 -53 -31 -87.5t-86 -34.5q-51 0 -81.5 35.5t-30.5 87.5q0 49 30.5 84.5t81.5 35.5zM634 668
q-24 0 -40.5 -21t-16.5 -46v-598h-49l-290 582v-466q0 -45 -29.5 -80.5t-73.5 -35.5q-42 0 -72 33.5t-35 78.5h44q2 -25 21 -42t38 -17q27 0 43.5 16.5t16.5 46.5v518h-98v49h148l289 -577v492q0 46 31.5 80.5t72.5 34.5q42 0 75.5 -31.5t37.5 -77.5h-50q-2 22 -21.5 41.5
t-41.5 19.5z" />
    <glyph glyph-name="dollar" unicode="$" horiz-adv-x="488" 
d="M323 198l11 -1q40 17 60.5 40.5t20.5 46.5q0 34 -31 60.5t-98 65t-110 72.5q-87 -47 -87 -97q0 -40 42.5 -72.5t191.5 -114.5zM74 63l55 8q12 -52 44.5 -75t87.5 -23q50 0 83.5 25t33.5 61q0 30 -36 59.5t-147 93.5q-79 41 -116 78.5t-37 87.5q0 27 31 61.5t86 53.5
q-70 57 -70 107q0 51 43 87t111 36q148 0 178 -124q-13 -3 -28.5 -4t-27.5 -3q-11 51 -39 71t-76 20q-45 0 -78.5 -22.5t-33.5 -54.5q0 -31 34.5 -61.5t135.5 -82.5q85 -47 120 -81t35 -81q0 -44 -30 -74h1q-18 -18 -89 -47q85 -58 85 -120q0 -52 -47 -90t-122 -38
q-155 0 -187 132z" />
    <glyph glyph-name="percent" unicode="%" horiz-adv-x="807" 
d="M221 -24h-43q35 56 221.5 386t200.5 357h41l-107 -187q-108 -186 -209 -364.5t-104 -191.5zM201 682q-50 0 -77.5 -32.5t-27.5 -115.5q0 -139 105 -139q104 0 104 148q0 139 -104 139zM618 299q-106 0 -106 -148q0 -73 29.5 -107t75.5 -34q48 0 77 36.5t29 112.5
q0 72 -29 106t-76 34zM46 544q0 75 39.5 125t110.5 50t114.5 -47t43.5 -133q0 -85 -44.5 -132.5t-110.5 -47.5q-69 0 -111 47t-42 138zM464 160q0 75 39.5 125t111.5 50q68 0 113 -48.5t45 -132.5t-45 -131t-112 -47q-70 0 -111 46t-41 138z" />
    <glyph glyph-name="ampersand" unicode="&#x26;" horiz-adv-x="689" 
d="M448 579q0 42 -35.5 74.5t-81.5 32.5q-44 0 -82.5 -31t-38.5 -74q0 -45 100 -153q138 73 138 151zM492 144l-211 231q-31 -18 -41.5 -24t-34.5 -21t-33 -22.5t-24 -21t-20 -24.5t-10 -26t-5 -31q0 -56 49 -111t124 -55q53 0 108.5 25.5t97.5 79.5zM519 109l-8 -17
q-100 -97 -220 -97q-104 0 -171.5 58.5t-67.5 143.5q0 123 198 212q-17 24 -46.5 56.5t-40.5 53.5t-11 54q0 62 53.5 106t128.5 44q73 0 121 -42t50 -100q0 -91 -170 -178q12 -17 97 -107.5t90 -97.5q28 50 52 124l56 -15q-23 -83 -67 -148q7 -8 23 -26t23.5 -26.5t20.5 -22
t25 -24t25 -20.5l-42 -44q-9 5 -20.5 14t-25.5 22.5t-23.5 23.5t-26.5 28t-23 25z" />
    <glyph glyph-name="quotesingle" unicode="'" horiz-adv-x="162" 
d="M96 532h-24l-19 104v87h62v-88z" />
    <glyph glyph-name="parenleft" unicode="(" horiz-adv-x="360" 
d="M313 -256h-35q-196 254 -196 488q0 130 48 246.5t148 242.5h34q-90 -133 -126.5 -246t-36.5 -243q0 -237 164 -488z" />
    <glyph glyph-name="parenright" unicode=")" horiz-adv-x="360" 
d="M127 -254h-36q165 246 165 488q0 4 -6 76q-12 134 -38.5 206t-118.5 207h34q100 -132 147.5 -244.5t47.5 -244.5q0 -128 -54 -256t-141 -232z" />
    <glyph glyph-name="asterisk" unicode="*" horiz-adv-x="510" 
d="M61 563l21 61l173 -75l-18 174h55l-23 -174l177 75l24 -61l-199 -32l140 -127l-49 -31l-100 148l-96 -150l-46 31l130 130z" />
    <glyph glyph-name="plus" unicode="+" horiz-adv-x="495" 
d="M284 56h-47v164h-180v47h180v164h47v-164h180v-47h-180v-164z" />
    <glyph glyph-name="comma" unicode="," horiz-adv-x="210" 
d="M122 2h-50v85h85v-87q0 -59 -17.5 -90t-66.5 -48l-9 16q58 33 58 124z" />
    <glyph glyph-name="hyphen" unicode="-" horiz-adv-x="360" 
d="M356 194h-334v36h334v-36z" />
    <glyph glyph-name="period" unicode="." horiz-adv-x="280" 
d="M201 2h-96v96h96v-96z" />
    <glyph glyph-name="slash" unicode="/" horiz-adv-x="286" 
d="M58 -5h-44l229 728h41z" />
    <glyph glyph-name="zero" unicode="0" horiz-adv-x="484" 
d="M242 0q-219 0 -219 343q0 345 219 345q220 0 220 -345q0 -343 -220 -343zM242 48q159 0 159 295q0 297 -159 297t-159 -297q0 -295 159 -295z" />
    <glyph glyph-name="one" unicode="1" horiz-adv-x="484" 
d="M269 674h58v-663h-59v594l-153 -121l-39 46z" />
    <glyph glyph-name="two" unicode="2" horiz-adv-x="484" 
d="M445 65v-54h-418v51l237 245q58 63 87 110.5t29 93.5q0 35 -14.5 62t-37.5 40.5t-45 20t-42 6.5q-51 0 -91.5 -32t-47.5 -97l-66 5q4 22 9.5 40t20.5 44.5t36 44t58 30.5t85 13q89 0 142 -51t53 -126q0 -51 -31 -106.5t-113 -139.5l-196 -202q44 2 78 2h267z" />
    <glyph glyph-name="three" unicode="3" horiz-adv-x="484" 
d="M22 167l64 15q6 -59 45 -96.5t99 -37.5q84 0 120.5 39t36.5 99q0 67 -39 108t-120 41q-9 0 -45 -3v54h35q70 0 115 34.5t45 95.5q0 62 -34 93t-96 31q-49 0 -84 -20t-48.5 -40.5t-25.5 -49.5l-58 22q49 136 215 136q55 0 94.5 -16.5t59.5 -43.5t28.5 -54t8.5 -56
q0 -35 -10.5 -62.5t-31.5 -45.5t-36.5 -27t-40.5 -20v-1q129 -23 129 -167q0 -54 -18.5 -93.5t-50.5 -60.5t-68.5 -31t-77.5 -10q-167 0 -211 167z" />
    <glyph glyph-name="four" unicode="4" horiz-adv-x="484" 
d="M363 674v-480h96v-49h-96v-134h-57v134h-281v64l247 465h91zM65 194h241v386q0 9 0.5 25t0.5 25l-14 -27z" />
    <glyph glyph-name="five" unicode="5" horiz-adv-x="484" 
d="M395 674v-48h-254l-5 -217q57 25 104 25q84 0 143.5 -61.5t59.5 -154.5q0 -99 -60.5 -158.5t-150.5 -59.5q-146 0 -191 156l59 18q3 -16 11.5 -35t24 -41t42.5 -36t61 -14q53 0 98 42.5t45 129.5q0 83 -47.5 123.5t-109.5 40.5q-82 0 -145 -54l9 344h306z" />
    <glyph glyph-name="six" unicode="6" horiz-adv-x="484" 
d="M284 674h75l-57 -68q-5 -6 -19.5 -24.5t-21 -26.5t-20 -25t-20.5 -26.5t-18.5 -25t-19 -26.5t-16 -23.5t-14.5 -23.5t-11 -21l2 -2q58 31 112 31q86 0 142.5 -58.5t56.5 -143.5q0 -91 -57 -151t-157 -60q-103 0 -157.5 61.5t-54.5 154.5q0 77 39.5 152.5t123.5 185.5z
M394 206q0 76 -44 116.5t-102 40.5q-83 0 -120.5 -31t-37.5 -104q0 -80 36.5 -130t114.5 -50q69 0 111 45t42 113z" />
    <glyph glyph-name="seven" unicode="7" horiz-adv-x="484" 
d="M28 674h410v-48l-288 -615h-68l296 615h-350v48z" />
    <glyph glyph-name="eight" unicode="8" horiz-adv-x="484" 
d="M242 0q-103 0 -154 53.5t-51 122.5q0 32 10 59.5t23 45t37 36t38.5 27.5t41.5 23q-49 24 -89.5 65.5t-40.5 98.5q0 77 47.5 117t137.5 40q97 0 141 -46.5t44 -110.5q0 -57 -40.5 -98.5t-89.5 -65.5q33 -18 52.5 -30.5t46 -36t39 -54.5t12.5 -70q0 -69 -51 -122.5
t-154 -53.5zM242 48q68 0 106 38t38 88q0 54 -28 83t-116 82q-87 -51 -115.5 -81t-28.5 -84q0 -50 38 -88t106 -38zM242 640q-59 0 -91.5 -31.5t-32.5 -74.5q0 -45 33 -77t91 -61q57 29 91 61t34 77q0 43 -33 74.5t-92 31.5z" />
    <glyph glyph-name="nine" unicode="9" horiz-adv-x="484" 
d="M198 11h-75l59 72q124 151 160 221l-2 2q-60 -29 -112 -29q-87 0 -143 57.5t-56 142.5q0 91 57 151t157 60q103 0 157.5 -61t54.5 -153q0 -79 -39 -154.5t-124 -185.5zM90 482q0 -74 44 -115.5t102 -41.5q36 0 74 13t59 27q25 40 25 95q0 81 -36.5 130.5t-114.5 49.5
q-69 0 -111 -44.5t-42 -113.5z" />
    <glyph glyph-name="colon" unicode=":" horiz-adv-x="272" 
d="M191 337h-83v81h83v-81zM191 2h-83v81h83v-81z" />
    <glyph glyph-name="semicolon" unicode=";" horiz-adv-x="286" 
d="M189 333h-85v84h85v-84zM148 2h-44v85h85v-85q0 -67 -67 -137l-12 12q38 57 38 125z" />
    <glyph glyph-name="less" unicode="&#x3c;" horiz-adv-x="495" 
d="M464 47l-409 158v55l409 157v-47l-365 -137q2 -2 365 -138v-48z" />
    <glyph glyph-name="equal" unicode="=" horiz-adv-x="495" 
d="M464 328v-47h-407v47h407zM464 144v-46h-407v46h407z" />
    <glyph glyph-name="greater" unicode="&#x3e;" horiz-adv-x="495" 
d="M464 262v-57q-395 -153 -409 -160v50l365 138l-365 136v48z" />
    <glyph glyph-name="question" unicode="?" horiz-adv-x="404" 
d="M208 100q21 0 33 -14.5t12 -36.5q0 -21 -12 -34t-33 -13q-23 0 -37 13t-14 34q0 22 14 36.5t37 14.5zM229 245v-78h-48v78q0 52 76 125q42 40 62 73.5t20 71.5q0 55 -33.5 104t-89.5 49q-46 0 -84 -36t-38 -80q0 -32 17 -57.5t48 -25.5q51 0 51 52q0 21 -6 44h26
q15 -37 15 -64q0 -39 -22.5 -61.5t-63.5 -22.5q-51 0 -83 41t-32 94q0 64 51.5 111t120.5 47q75 0 123.5 -59.5t48.5 -135.5q0 -51 -24 -89.5t-83 -100.5q-6 -6 -15.5 -16t-12.5 -13.5l-9 -10.5t-7.5 -10t-4 -8.5t-3 -10.5t-0.5 -11z" />
    <glyph glyph-name="at" unicode="@" horiz-adv-x="795" 
d="M255 211q0 -70 30.5 -113.5t70.5 -43.5q37 0 73.5 34t62.5 95v-1q24 64 24 135q0 38 -10.5 67.5t-24.5 45.5t-30.5 27t-26.5 14t-14 3q-61 0 -108 -82.5t-47 -180.5zM477 75l-19 5q-55 -79 -117 -79t-101.5 63t-39.5 153q0 129 68 220t137 91q9 0 12 -1.5t3.5 -4.5
t9.5 -9.5t26 -14.5q29 -14 45.5 -34t31.5 -53q12 47 18 101h54l-56 -325q-14 -78 -14 -80q0 -19 12 -32t27 -13q28 0 74 42.5t67 102.5h-1q30 70 30 148q0 140 -89 232.5t-216 92.5q-147 0 -252 -120.5t-105 -325.5q0 -187 98.5 -290.5t271.5 -103.5q95 0 174 39.5
t120 111.5h54q-46 -98 -140.5 -152.5t-207.5 -54.5q-187 0 -298.5 118.5t-111.5 324.5q0 119 32.5 216.5t88.5 160t128 96t152 33.5q142 0 242 -105.5t100 -274.5q0 -85 -33 -167t-89 -134t-116 -52q-36 0 -52 17.5t-18 57.5z" />
    <glyph glyph-name="A" unicode="A" horiz-adv-x="492" 
d="M65 0h-57l202 644h65l216 -644h-63l-63 200h-240zM204 460l-64 -206h209l-61 195q-26 80 -39 140l-16 -1q-16 -85 -29 -128z" />
    <glyph glyph-name="B" unicode="B" horiz-adv-x="492" 
d="M259 0h-197v644h194q80 0 126 -42t46 -118q0 -90 -88 -143q54 -20 84 -61t30 -97q0 -183 -195 -183zM115 584v-218h127q70 0 101.5 24.5t31.5 83.5q0 58 -30 84t-112 26h-118zM115 306v-246h144q73 0 105.5 29.5t32.5 93.5q0 61 -35 92t-112 31h-135z" />
    <glyph glyph-name="C" unicode="C" horiz-adv-x="533" 
d="M447 212l55 -17q-24 -102 -80.5 -154t-138.5 -52q-74 0 -124 35v-1q-53 37 -85 117.5t-32 186.5q0 154 68.5 241.5t176.5 87.5q75 0 129 -46t77 -132l-54 -16q-39 137 -151 137q-87 0 -138.5 -68.5t-51.5 -203.5q0 -138 49 -209.5t135 -71.5q61 0 105.5 42.5t59.5 123.5z
" />
    <glyph glyph-name="D" unicode="D" horiz-adv-x="533" 
d="M249 0h-187v644h178q124 0 188.5 -74.5t64.5 -243.5q0 -326 -244 -326zM116 584v-524h124q109 0 153 66t44 201q0 137 -46 197t-152 60h-123z" />
    <glyph glyph-name="E" unicode="E" horiz-adv-x="492" 
d="M453 0h-388v644h375v-60h-321v-221h300v-59h-300v-244h334v-60z" />
    <glyph glyph-name="F" unicode="F" horiz-adv-x="451" 
d="M123 0h-54v644h348v-60h-294v-223h255v-60h-255v-301z" />
    <glyph glyph-name="G" unicode="G" horiz-adv-x="574" 
d="M479 260h-160v59q37 0 106.5 0.5t105.5 0.5v-234q-103 -97 -216 -97q-117 0 -192.5 87.5t-75.5 239.5q0 160 73.5 250t189.5 90q171 0 211 -182q-39 -13 -47 -16q-36 141 -165 141q-93 0 -149.5 -71t-56.5 -204t57 -203.5t152 -70.5q44 0 91.5 22t75.5 52v136z" />
    <glyph glyph-name="H" unicode="H" horiz-adv-x="533" 
d="M117 0h-54v644h54v-272h301v272h54v-644h-54v312h-301v-312z" />
    <glyph glyph-name="I" unicode="I" horiz-adv-x="205" 
d="M134 0h-54v644h54v-644z" />
    <glyph glyph-name="J" unicode="J" horiz-adv-x="369" 
d="M27 171l47 8q4 -71 26.5 -100.5t63.5 -29.5q50 0 70 37t20 111v447h54v-442q0 -115 -36.5 -164t-107.5 -49q-134 0 -137 182z" />
    <glyph glyph-name="K" unicode="K" horiz-adv-x="492" 
d="M115 0h-54v644h54v-344l282 344h75l-220 -258l233 -386h-74l-197 342l-99 -118v-224z" />
    <glyph glyph-name="L" unicode="L" 
d="M381 0h-321v644h54v-584h267v-60z" />
    <glyph glyph-name="M" unicode="M" horiz-adv-x="615" 
d="M112 0h-51v644h92l155 -564h14l158 564h81v-644h-51v607l-17 -57l-154 -550h-51l-159 560l-17 47v-607z" />
    <glyph glyph-name="N" unicode="N" horiz-adv-x="533" 
d="M113 0h-51v644h59l285 -519l15 -46v565h51v-644h-59l-285 520l-15 46v-566z" />
    <glyph glyph-name="O" unicode="O" horiz-adv-x="574" 
d="M43 313q0 160 71 251.5t180 91.5q107 0 179 -89t72 -240q0 -152 -69.5 -245t-181.5 -93q-109 0 -180 93t-71 231zM99 312q0 -123 55.5 -194.5t138.5 -71.5q87 0 141.5 73t54.5 204q0 87 -29 157h1q-20 51 -67 85t-99 34q-87 0 -141.5 -72.5t-54.5 -214.5z" />
    <glyph glyph-name="P" unicode="P" horiz-adv-x="492" 
d="M118 0h-54v644h196q105 0 152.5 -43t47.5 -138q0 -193 -194 -193h-148v-270zM118 584v-255h150q70 0 103 32t33 98q0 43 -16 72v-1q-16 31 -41 43h1q-25 11 -82 11h-148z" />
    <glyph glyph-name="Q" unicode="Q" horiz-adv-x="574" 
d="M461 68l1 -13q53 -43 87 -59l-15 -44q-53 25 -111 80q-62 -43 -133 -43q-109 0 -180 93.5t-71 239.5q0 157 72.5 245.5t179.5 88.5q109 0 179.5 -91t70.5 -242q0 -164 -80 -255zM303 116l12 47q51 -20 98 -65q71 80 71 225q0 128 -54 202t-138 74q-86 0 -141.5 -71.5
t-55.5 -205.5q0 -131 55 -203.5t141 -72.5q41 0 89 24q-36 31 -77 46z" />
    <glyph glyph-name="R" unicode="R" horiz-adv-x="533" 
d="M117 0h-54v644h232q93 0 138.5 -40.5t45.5 -130.5q0 -71 -43.5 -116.5t-125.5 -59.5q14 -8 25 -15.5t20.5 -15t16 -12.5t13.5 -14t10.5 -13t9.5 -14t8 -13.5t8.5 -16t8.5 -16.5l88 -167h-70l-69 133q-41 80 -63 109t-47 41h1q-21 11 -61 11h-92v-294zM117 589v-237h164
q142 0 142 120q0 56 -32 86.5t-93 30.5h-181z" />
    <glyph glyph-name="S" unicode="S" horiz-adv-x="492" 
d="M40 195l50 6q9 -71 52.5 -111.5t115.5 -40.5q67 0 105.5 34t38.5 88q0 32 -13 56q-15 27 -40.5 39.5t-116.5 39.5q-95 28 -133 67t-38 109q0 78 50 126t133 48t135 -49.5t58 -130.5l-51 -6q-15 126 -140 126q-64 0 -99 -29.5t-35 -77.5q0 -46 25.5 -69t110.5 -46
q116 -35 161.5 -75t45.5 -121q0 -85 -56 -137.5t-146 -52.5q-94 0 -152 56t-61 151z" />
    <glyph glyph-name="T" unicode="T" horiz-adv-x="451" 
d="M257 0h-53v584h-180v60h413v-60h-180v-584z" />
    <glyph glyph-name="U" unicode="U" horiz-adv-x="533" 
d="M419 271v373h54v-373q0 -141 -45.5 -211.5t-158.5 -70.5q-107 0 -156.5 63.5t-49.5 218.5v373h54v-373q0 -120 33.5 -170.5t113.5 -50.5q82 0 118.5 47t36.5 174z" />
    <glyph glyph-name="V" unicode="V" horiz-adv-x="492" 
d="M278 0h-61l-205 644h59q16 -53 55.5 -183.5t67 -226t46.5 -176.5h15q22 85 30 111l145 475h54z" />
    <glyph glyph-name="W" unicode="W" horiz-adv-x="696" 
d="M216 0h-59l-140 644h55l81 -427q12 -67 23 -138h17l25 125l101 440h73l76 -328q28 -118 43 -236h17q13 79 28 146l83 418h53l-145 -644h-53l-114 498l-18 80h-17q-9 -53 -15 -80z" />
    <glyph glyph-name="X" unicode="X" horiz-adv-x="492" 
d="M81 0h-65l205 336l-180 308h64l97 -165q31 -53 50 -98q31 58 51 91l108 172h56l-185 -303l200 -341h-67l-135 231q-13 23 -31 61l-34 -66z" />
    <glyph glyph-name="Y" unicode="Y" horiz-adv-x="492" 
d="M271 0h-54v274l-202 370h66l104 -195q33 -62 64 -129q16 37 67 134l102 190h63l-210 -370v-274z" />
    <glyph glyph-name="Z" unicode="Z" horiz-adv-x="451" 
d="M433 0h-411v69l277 423q33 50 68 92h-314v60h371v-66l-303 -457h1l-44 -61h355v-60z" />
    <glyph glyph-name="bracketleft" unicode="[" horiz-adv-x="218" 
d="M209 -203h-145v923h145v-55h-90v-813h90v-55z" />
    <glyph glyph-name="backslash" unicode="\" horiz-adv-x="218" 
d="M221 -20h-40l-171 742h38z" />
    <glyph glyph-name="bracketright" unicode="]" horiz-adv-x="218" 
d="M169 720v-923h-145v55h91v813h-91v55h145z" />
    <glyph glyph-name="asciicircum" unicode="^" horiz-adv-x="368" 
d="M193 663l-109 -322h-51l137 381h46l139 -381h-53z" />
    <glyph glyph-name="underscore" unicode="_" horiz-adv-x="436" 
d="M-2 -126v29h460v-29h-460z" />
    <glyph glyph-name="grave" unicode="`" horiz-adv-x="261" 
d="M125 723l49 -120h-41l-79 120h71z" />
    <glyph glyph-name="a" unicode="a" 
d="M314 51l-16 6q-65 -68 -139 -68q-58 0 -92.5 34.5t-34.5 94.5q0 44 17 73t49 43t64 21.5t76 16.5t71 20v27q0 60 -27 84.5t-77 24.5q-49 0 -74.5 -20t-37.5 -71l-48 8q14 69 55 101t115 32q87 0 115 -40t28 -134v-110q0 -107 2.5 -135.5t14.5 -58.5h-50q-8 24 -11 51z
M309 204v45q-25 -12 -96.5 -29t-87.5 -26v1q-40 -22 -40 -74q0 -39 24 -62.5t66 -23.5q61 0 97.5 42t36.5 127z" />
    <glyph glyph-name="b" unicode="b" 
d="M98 56v-56h-44v651h49v-260q57 87 118 87q68 0 113.5 -63t45.5 -175q0 -115 -47 -183t-116 -68q-65 0 -104 71zM97 237q0 -199 117 -199q48 0 82 52.5t34 143.5q0 93 -32.5 143.5t-84.5 50.5q-47 0 -81.5 -51t-34.5 -140z" />
    <glyph glyph-name="c" unicode="c" horiz-adv-x="369" 
d="M314 158l48 -8q-12 -78 -54.5 -119.5t-102.5 -41.5q-77 0 -123.5 62.5t-46.5 182.5q0 118 47.5 181t125.5 63q58 0 96 -35t50 -103l-46 -8q-24 96 -98 96q-55 0 -90 -48t-35 -145q0 -98 33 -147.5t88 -49.5q92 0 108 120z" />
    <glyph glyph-name="d" unicode="d" 
d="M358 0h-45v56l-16 4q-37 -71 -102 -71q-70 0 -117.5 66.5t-47.5 177.5q0 116 45 180.5t113 64.5q65 0 120 -91v264h50v-651zM81 233q0 -93 34 -144t84 -51t82.5 49t32.5 137q0 102 -33 153t-87 51q-48 0 -81 -49h1q-33 -47 -33 -146z" />
    <glyph glyph-name="e" unicode="e" 
d="M324 137l51 -8q-35 -140 -164 -140q-78 0 -130 61h1q-50 62 -50 179q0 119 49 184t127 65q76 0 124 -64t48 -180v-12h-298q4 -92 39.5 -138t90.5 -46q79 0 112 99zM86 271h242q-13 157 -120 157q-50 0 -84 -41.5t-38 -115.5z" />
    <glyph glyph-name="f" unicode="f" horiz-adv-x="205" 
d="M124 0h-49v421h-60v46h60v60q0 72 23.5 104t77.5 32q24 0 53 -6l-8 -53q-11 1 -32 1q-35 0 -50 -18.5t-15 -65.5v-54h77v-46h-77v-421z" />
    <glyph glyph-name="g" unicode="g" 
d="M42 -60l48 -9q13 -78 99 -78q95 0 116 92v-1q6 27 6 139q-59 -83 -120 -83q-72 0 -117.5 68t-45.5 169q0 115 47.5 178t116.5 63q66 0 125 -92v81h44v-410q0 -137 -38.5 -195.5t-131.5 -58.5q-70 0 -108.5 36.5t-40.5 100.5zM80 242q0 -96 32.5 -144t85.5 -48
q51 0 84.5 46.5t33.5 141.5q0 93 -34 141.5t-88 48.5q-48 0 -81 -48.5t-33 -137.5z" />
    <glyph glyph-name="h" unicode="h" 
d="M103 0h-48v651h48v-259q62 86 129 86q62 0 95 -40t33 -140v-298h-49v298q0 127 -93 127q-52 0 -83.5 -39.5t-31.5 -129.5v-256z" />
    <glyph glyph-name="i" unicode="i" horiz-adv-x="164" 
d="M106 575h-49v76h49v-76zM106 0h-49v467h49v-467z" />
    <glyph glyph-name="j" unicode="j" horiz-adv-x="164" 
d="M106 574h-49v77h49v-77zM-27 -191l10 52q12 -4 24 -4q27 0 38.5 21t11.5 88v501h49v-503q0 -92 -22 -126.5t-68 -34.5q-22 0 -43 6z" />
    <glyph glyph-name="k" unicode="k" horiz-adv-x="369" 
d="M105 0h-49v651h49v-399l174 215h63l-144 -171l162 -296h-61l-135 255l-59 -68v-187z" />
    <glyph glyph-name="l" unicode="l" horiz-adv-x="164" 
d="M104 0h-49v651h49v-651z" />
    <glyph glyph-name="m" unicode="m" horiz-adv-x="615" 
d="M103 0h-50v467h42v-63l16 -4q42 78 114 78q80 0 109 -100q57 100 126 100q114 0 114 -154v-324h-49v296q0 70 -19 99t-60 29q-49 0 -78 -37.5t-29 -114.5v-272h-49v306q0 118 -79 118q-54 0 -81 -41t-27 -140v-243z" />
    <glyph glyph-name="n" unicode="n" 
d="M103 0h-48v467h42v-65l15 -4q43 80 120 80q60 0 96 -43q18 -22 24.5 -51t6.5 -95v-289h-49v286q0 74 -22.5 106t-69.5 32q-115 0 -115 -168v-256z" />
    <glyph glyph-name="o" unicode="o" 
d="M29 233q0 117 49 181t129 64q77 0 127 -63t50 -177q0 -122 -49 -185.5t-128 -63.5q-78 0 -128 63.5t-50 180.5zM80 233q0 -95 36 -145t92 -50q54 0 89.5 51.5t35.5 143.5q0 95 -36 145t-92 50q-54 0 -89.5 -51t-35.5 -144z" />
    <glyph glyph-name="p" unicode="p" 
d="M103 -186h-49v653h44v-88q58 99 124 99q68 0 113.5 -63t45.5 -175q0 -116 -47.5 -183.5t-116.5 -67.5q-58 0 -114 82v-257zM97 230q0 -93 32.5 -142.5t83.5 -49.5q49 0 83.5 51.5t34.5 146.5t-33.5 145.5t-84.5 50.5q-45 0 -82 -54h1q-35 -50 -35 -148z" />
    <glyph glyph-name="q" unicode="q" 
d="M357 -186h-49v233l-15 4q-16 -29 -42.5 -45.5t-53.5 -16.5q-70 0 -118 67.5t-48 181.5q0 104 42 172t117 68q68 0 110 -75l14 3v61h43v-653zM82 235q0 -95 33.5 -146t86.5 -51q48 0 80.5 49.5t32.5 137.5q0 98 -34 152t-87 54q-48 0 -80 -49t-32 -147z" />
    <glyph glyph-name="r" unicode="r" horiz-adv-x="246" 
d="M104 0h-49v467h43v-69l16 -3q22 50 39.5 66.5t39.5 16.5q26 0 59 -21q-3 -12 -9 -31t-9 -28q-22 13 -43 13q-46 0 -66.5 -48.5t-20.5 -117.5v-245z" />
    <glyph glyph-name="s" unicode="s" horiz-adv-x="369" 
d="M31 128l48 10q16 -100 110 -100q48 0 75 24t27 63q0 30 -18 46t-78 34q-91 28 -122.5 56t-31.5 86q0 59 38 95t103 36q64 0 98 -30t45 -90l-48 -8q-13 78 -94 78q-46 0 -71 -19.5t-25 -51.5q0 -30 15.5 -43.5t84.5 -37.5q97 -30 125.5 -56t28.5 -85q0 -67 -41 -106.5
t-114 -39.5q-133 0 -155 139z" />
    <glyph glyph-name="t" unicode="t" horiz-adv-x="205" 
d="M189 54l7 -56q-23 -5 -40 -5q-49 0 -66.5 25t-17.5 115v288h-50v46h50v124l49 36v-160h67v-46h-67v-293q0 -47 10 -61.5t37 -14.5q13 0 21 2z" />
    <glyph glyph-name="u" unicode="u" 
d="M357 0h-42v67l-14 4q-46 -82 -121 -82q-69 0 -98 46t-29 140v292h49v-260q0 -93 20 -129t71 -36q115 0 115 174v251h49v-467z" />
    <glyph glyph-name="v" unicode="v" horiz-adv-x="369" 
d="M213 0h-49l-145 467h51l84 -284q14 -46 26 -101l16 -1q13 56 26 96l87 290h49z" />
    <glyph glyph-name="w" unicode="w" horiz-adv-x="533" 
d="M180 0h-56l-117 467h52q11 -54 34.5 -156.5t26.5 -116.5l24 -108h16l84 381h53l79 -371h17l90 371h47l-120 -467h-56l-62 283l-15 87h-17z" />
    <glyph glyph-name="x" unicode="x" horiz-adv-x="369" 
d="M78 0h-60l140 243l-130 224h63l94 -179l103 179h59l-131 -219l142 -248h-61l-79 146l-30 56z" />
    <glyph glyph-name="y" unicode="y" horiz-adv-x="369" 
d="M52 -190l-5 59q13 -4 28 -4q40 0 53 18t41 107l-148 477h53l82 -275q15 -51 29 -115h16q17 79 28 113l83 277h49l-148 -482q-35 -114 -59 -148t-67 -34q-17 0 -35 7z" />
    <glyph glyph-name="z" unicode="z" horiz-adv-x="369" 
d="M354 0h-333v55l262 367q-56 -4 -95 -4h-152v49h306v-43l-266 -378q75 7 104 7h174v-53z" />
    <glyph glyph-name="braceleft" unicode="{" horiz-adv-x="262" 
d="M30 213v63q49 4 67 47.5t18 157.5q0 141 20.5 188.5t98.5 47.5h14v-57h-3q-46 0 -64 -25q-23 -25 -23 -218v-45q-8 -37 -14.5 -54t-24 -36.5t-52.5 -40.5q59 -30 77 -73.5t18 -149.5q0 -49 0.5 -78t4.5 -52.5t8.5 -33.5t15.5 -17t22 -8t32 -1h3v-59h-14q-51 0 -73.5 15
t-34 65t-11.5 158q0 83 -9.5 125.5t-25.5 57.5t-50 23z" />
    <glyph glyph-name="bar" unicode="|" horiz-adv-x="70" 
d="M56 -271h-42v993h42v-993z" />
    <glyph glyph-name="braceright" unicode="}" horiz-adv-x="262" 
d="M244 276v-63q-48 -5 -67 -48t-19 -158q-3 -132 -14 -170q-18 -59 -81 -67q-12 -1 -25 -1h-14v59h3q47 0 64.5 20t17.5 95q0 121 7 174t26 79t65 47q-63 37 -80.5 78.5t-17.5 148.5q0 134 -10.5 162t-71.5 28h-3v57h14q59 0 82.5 -26t31.5 -74q9 -212 12 -238
q9 -74 43 -93q15 -8 37 -10z" />
    <glyph glyph-name="asciitilde" unicode="~" horiz-adv-x="458" 
d="M39 299v73q19 54 104 54q17 0 49 -9q8 -3 41 -18t65.5 -27.5t47.5 -12.5q42 0 96 50v-75q-48 -50 -105 -50q-29 0 -44 5q-7 2 -38.5 18.5t-66 30.5t-53.5 14q-43 0 -96 -53z" />
    <glyph glyph-name="currency" unicode="&#xa4;" horiz-adv-x="473" 
d="M104 388l-62 53q13 8 20 20l4 3q1 0 9 10l60 -57q58 35 110 35q53 0 110 -35q15 17 60 57l13 -14q4 -3 10.5 -10t9.5 -9l-58 -53q32 -51 32 -99q0 -51 -34 -100q8 -5 29 -26t31 -28l-33 -30q-1 -3 -3 -3l-2 2l5 1l-60 55q-59 -35 -110 -35q-45 0 -110 35l-30 -29
q-6 -6 -27 -14l-10 -4l-16 15q-3 4 -10 7l61 54q-33 56 -33 100q0 50 34 99zM113 289q0 -48 39 -83t93 -35q53 0 92.5 35t39.5 83q0 49 -39 83t-93 34t-93 -34t-39 -83zM73 109l-5 4l-1 -2q0 -4 8 -6q-2 2 -2 4zM406 98l1 2q0 -2 1 -2h-2zM410 100h-3v1z" />
    <glyph glyph-name="brokenbar" unicode="&#xa6;" horiz-adv-x="220" 
d="M98 717h37v-413h-37v413zM98 148h37v-411h-37v411z" />
    <glyph glyph-name="section" unicode="&#xa7;" horiz-adv-x="542" 
d="M359 136l14 -1q89 47 89 100q0 34 -29.5 60.5t-107 73t-129.5 85.5q-54 -30 -76 -54t-22 -53q0 -40 33 -68t150 -97q49 -29 78 -46zM82 -10l60 8q30 -110 148 -110q57 0 93.5 27.5t36.5 68.5q0 34 -39.5 66.5t-162.5 103.5q-73 38 -107 66v-1q-26 22 -44.5 55t-18.5 62
q0 44 28.5 75t100.5 54q-78 64 -78 122q0 55 47.5 95.5t123.5 40.5q52 0 87 -16t52.5 -37.5t48.5 -69.5q7 -11 10 -16q-10 -5 -28 -5h-11q-11 0 -24 -3q-13 57 -43 79.5t-82 22.5q-53 0 -88 -25t-38 -62q0 -9 1.5 -16.5t6 -15.5t8.5 -13.5t14.5 -14t19 -14.5t25.5 -17
t30 -19t38 -23.5t44 -27.5q174 -78 174 -178q0 -46 -23 -72t-108 -61q95 -70 95 -133q0 -61 -51.5 -101t-137.5 -40q-172 0 -208 145z" />
    <glyph glyph-name="copyright" unicode="&#xa9;" horiz-adv-x="798" 
d="M421 722q170 0 292 -113t122 -269q0 -112 -64 -201.5t-157.5 -134t-192.5 -44.5q-170 0 -294 113.5t-124 266.5q0 87 39 161t100.5 121t134.5 73.5t144 26.5zM421 683q-86 0 -159 -30t-121 -79t-75.5 -110t-28.5 -124q0 -65 29 -126.5t78.5 -109.5t122 -77.5t154.5 -29.5
q87 0 160 31t119.5 81t73.5 110t30 121q0 146 -116.5 243.5t-266.5 99.5zM573 256l35 -6q-21 -59 -72.5 -90.5t-114.5 -31.5q-94 0 -151.5 57t-57.5 154v4q0 96 58 151.5t151 55.5h4q120 0 175 -101l-14 -2q-3 -3 -20 -3q-40 76 -143 76q-74 0 -122.5 -48.5t-48.5 -133.5
q0 -84 46 -130.5t118 -46.5q55 0 95.5 25.5t61.5 69.5z" />
    <glyph glyph-name="guillemotleft" unicode="&#xab;" horiz-adv-x="488" 
d="M428 368l-116 -183l116 -183h-38l-139 183l140 183h37zM247 368l-116 -183l116 -183h-37l-140 183l141 183h36z" />
    <glyph glyph-name="logicalnot" unicode="&#xac;" horiz-adv-x="633" 
d="M593 418v-288h-63v229h-458v59h521z" />
    <glyph glyph-name="registered" unicode="&#xae;" horiz-adv-x="798" 
d="M421 725q109 0 204.5 -50.5t152.5 -139t57 -193.5q0 -82 -36.5 -154t-94.5 -120.5t-131 -76.5t-146 -28q-109 0 -206 48t-157.5 136t-60.5 195q0 87 39 161t100.5 121t134 73.5t144.5 27.5zM421 687q-112 0 -201.5 -52t-135 -130t-47.5 -163q0 -137 110 -239t274 -104
q88 0 161 31.5t119.5 82t73 110t29.5 119.5q0 96 -55.5 176t-143 123.5t-184.5 45.5zM286 138h-38v397h143q93 0 137 -21.5t44 -77.5q0 -42 -34 -72.5t-96 -34.5v-10q0 -5 -5 -10t-5 -7q3 -8 21 -13q27 -9 50.5 -30t37.5 -40.5t52 -77.5q0 -2 1 -2l-52 -1
q-63 109 -98.5 145.5t-92.5 36.5h-65v-182zM286 507v-157h110q68 0 100 21.5t32 57.5q0 78 -137 78h-105z" />
    <glyph glyph-name="macron" unicode="&#xaf;" horiz-adv-x="598" 
d="M638 678h-649v42h649v-42z" />
    <glyph glyph-name="degree" unicode="&#xb0;" horiz-adv-x="434" 
d="M107 587q0 -45 34.5 -74.5t82.5 -29.5q49 0 83.5 29t34.5 75q0 41 -35 71t-83 30q-47 0 -82 -30t-35 -71zM82 587q0 51 43 90t99 39q58 0 100.5 -38.5t42.5 -90.5q0 -56 -42 -94.5t-101 -38.5q-56 0 -99 38.5t-43 94.5z" />
    <glyph glyph-name="plusminus" unicode="&#xb1;" horiz-adv-x="595" 
d="M572 62v-60h-520v60h520zM341 138h-59v212h-230v58h230v211h59v-211h231v-58h-231v-212z" />
    <glyph glyph-name="acute" unicode="&#xb4;" horiz-adv-x="360" 
d="M194 600h-48l64 119h87z" />
    <glyph glyph-name="paragraph" unicode="&#xb6;" horiz-adv-x="583" 
d="M297 -231h-56v546q-110 9 -171 60t-61 133q0 102 62.5 157.5t190.5 55.5h344v-61h-82v-891h-59v891h-168v-891z" />
    <glyph glyph-name="periodcentered" unicode="&#xb7;" horiz-adv-x="338" 
d="M216 169h-81v80h81v-80z" />
    <glyph glyph-name="ordmasculine" unicode="&#xba;" horiz-adv-x="395" 
d="M208 677q-126 0 -126 -141q3 -69 35 -105t89 -36t91 35t34 109q0 69 -33.5 103.5t-89.5 34.5zM208 720q76 0 122.5 -50t46.5 -134q0 -83 -47.5 -131.5t-121.5 -50.5q-77 0 -124.5 48.5t-47.5 132.5q0 85 47.5 135t124.5 50z" />
    <glyph glyph-name="guillemotright" unicode="&#xbb;" horiz-adv-x="488" 
d="M59 1l137 183l-137 183h59l139 -184l-139 -182h-59zM262 1l115 183l-115 183h36l138 -183l-138 -183h-36z" />
    <glyph glyph-name="Agrave" unicode="&#xc0;" horiz-adv-x="492" 
d="M65 0h-57l202 644h65l216 -644h-63l-63 200h-240zM204 460l-64 -206h209l-61 195q-26 80 -39 140l-16 -1q-16 -85 -29 -128zM236 816l43 -108h-36l-103 108h96z" />
    <glyph glyph-name="Aacute" unicode="&#xc1;" horiz-adv-x="492" 
d="M65 0h-57l202 644h65l216 -644h-63l-63 200h-240zM204 460l-64 -206h209l-61 195q-26 80 -39 140l-16 -1q-16 -85 -29 -128zM223 708h-36q2 6 42 108h64z" />
    <glyph glyph-name="Acircumflex" unicode="&#xc2;" horiz-adv-x="492" 
d="M65 0h-57l202 644h65l216 -644h-63l-63 200h-240zM204 460l-64 -206h209l-61 195q-26 80 -39 140l-16 -1q-16 -85 -29 -128zM289 708l-46 87l-47 -87h-54l68 108h61l72 -108h-54z" />
    <glyph glyph-name="Atilde" unicode="&#xc3;" horiz-adv-x="492" 
d="M65 0h-57l202 644h65l216 -644h-63l-63 200h-240zM204 460l-64 -206h209l-61 195q-26 80 -39 140l-16 -1q-16 -85 -29 -128zM155 708h-32q2 38 20 61.5t46 23.5q10 0 48 -19t50 -19q26 0 35 39h31q-3 -41 -20.5 -63t-43.5 -22q-9 0 -48 21t-50 21q-33 0 -36 -43z" />
    <glyph glyph-name="Adieresis" unicode="&#xc4;" horiz-adv-x="492" 
d="M65 0h-57l202 644h65l216 -644h-63l-63 200h-240zM204 460l-64 -206h209l-61 195q-26 80 -39 140l-16 -1q-16 -85 -29 -128zM197 742h-51v74h51v-74zM335 742h-51v74h51v-74z" />
    <glyph glyph-name="Aring" unicode="&#xc5;" horiz-adv-x="492" 
d="M65 0h-57l202 644h65l216 -644h-63l-63 200h-240zM204 460l-64 -206h209l-61 195q-26 80 -39 140l-16 -1q-16 -85 -29 -128zM192 763q0 29 17.5 50.5t40.5 21.5q25 0 41.5 -21.5t16.5 -52.5t-17.5 -52.5t-40.5 -21.5q-22 0 -40 22.5t-18 53.5zM203 762q0 -25 14.5 -41.5
t33.5 -16.5t33.5 16.5t14.5 41.5q0 24 -14.5 41t-33.5 17q-20 0 -34 -17t-14 -41z" />
    <glyph glyph-name="AE" unicode="&#xc6;" horiz-adv-x="738" 
d="M67 0h-58l254 644h430v-60h-273v-222h254v-59h-254v-243h284v-60h-337v191h-226zM297 584l-132 -333h202v333h-70z" />
    <glyph glyph-name="Ccedilla" unicode="&#xc7;" horiz-adv-x="533" 
d="M236 -70l15 61q-56 6 -92 33v-1q-53 37 -85 117.5t-32 186.5q0 154 68.5 241.5t176.5 87.5q75 0 129 -46t77 -132l-54 -16q-39 137 -151 137q-87 0 -138.5 -68.5t-51.5 -203.5q0 -138 49 -209.5t135 -71.5q61 0 105.5 42.5t59.5 123.5l55 -17q-24 -102 -80.5 -154
t-138.5 -52l-13 -44q32 -4 49 -20.5t17 -39.5q0 -32 -26.5 -53.5t-69.5 -21.5q-26 0 -45 3q0 3 3 36l28 -1q33 -1 49.5 11t16.5 32q0 18 -12.5 27.5t-43.5 11.5z" />
    <glyph glyph-name="Egrave" unicode="&#xc8;" horiz-adv-x="492" 
d="M453 0h-388v644h375v-60h-321v-221h300v-59h-300v-244h334v-60zM235 816l43 -108h-35l-74 108h66z" />
    <glyph glyph-name="Eacute" unicode="&#xc9;" horiz-adv-x="492" 
d="M453 0h-388v644h375v-60h-321v-221h300v-59h-300v-244h334v-60zM255 708h-37l43 108h64z" />
    <glyph glyph-name="Ecircumflex" unicode="&#xca;" horiz-adv-x="492" 
d="M453 0h-388v644h375v-60h-321v-221h300v-59h-300v-244h334v-60zM301 708l-46 87l-47 -87h-54l68 108h62l71 -108h-54z" />
    <glyph glyph-name="Edieresis" unicode="&#xcb;" horiz-adv-x="492" 
d="M453 0h-388v644h375v-60h-321v-221h300v-59h-300v-244h334v-60zM208 742h-52v74h52v-74zM346 742h-52v74h52v-74z" />
    <glyph glyph-name="Igrave" unicode="&#xcc;" horiz-adv-x="205" 
d="M134 0h-54v644h54v-644zM104 816l43 -108h-36l-31 108h24z" />
    <glyph glyph-name="Iacute" unicode="&#xcd;" horiz-adv-x="205" 
d="M133 0h-53v644h53v-644zM116 708h-37q40 102 42 108h65z" />
    <glyph glyph-name="Icircumflex" unicode="&#xce;" horiz-adv-x="205" 
d="M134 0h-54v644h54v-644zM151 708l-46 87l-46 -87h-55l68 108h62l72 -108h-55z" />
    <glyph glyph-name="Idieresis" unicode="&#xcf;" horiz-adv-x="205" 
d="M134 0h-54v644h54v-644zM63 742h-51v74h68zM202 742h-52v74h52v-74z" />
    <glyph glyph-name="Eth" unicode="&#xd0;" horiz-adv-x="533" 
d="M250 0h-188v301h-59v42h59v301h179q123 0 188 -74.5t65 -244.5q0 -164 -59.5 -244.5t-184.5 -80.5zM116 301v-241h125q108 0 152 66t44 200q0 140 -46 199t-152 59h-123v-241h150v-42h-150z" />
    <glyph glyph-name="Ntilde" unicode="&#xd1;" horiz-adv-x="533" 
d="M113 0h-51v644h59l285 -519l15 4v515h51v-644h-59l-285 520l-15 -4v-516zM189 708h-32q1 38 20 61.5t46 23.5q11 0 48.5 -19t49.5 -19q27 0 35 39h31q-3 -41 -20.5 -63t-43.5 -22q-8 0 -47.5 21t-49.5 21q-15 0 -25.5 -11t-11.5 -32z" />
    <glyph glyph-name="Ograve" unicode="&#xd2;" horiz-adv-x="574" 
d="M43 313q0 160 71 251.5t180 91.5q107 0 179 -89t72 -240q0 -152 -69.5 -245t-181.5 -93q-109 0 -180 93t-71 231zM99 312q0 -123 55.5 -194.5t138.5 -71.5q87 0 141.5 73t54.5 204q0 87 -29 157h1q-20 51 -67 85t-99 34q-87 0 -141.5 -72.5t-54.5 -214.5zM287 816
l43 -108h-36l-73 108h66z" />
    <glyph glyph-name="Oacute" unicode="&#xd3;" horiz-adv-x="574" 
d="M43 313q0 160 71 251.5t180 91.5q107 0 179 -89t72 -240q0 -152 -69.5 -245t-181.5 -93q-109 0 -180 93t-71 231zM99 312q0 -123 55.5 -194.5t138.5 -71.5q87 0 141.5 73t54.5 204q0 87 -29 157h1q-20 51 -67 85t-99 34q-87 0 -141.5 -72.5t-54.5 -214.5zM281 708h-37
l43 108h64z" />
    <glyph glyph-name="Ocircumflex" unicode="&#xd4;" horiz-adv-x="574" 
d="M43 313q0 160 71 251.5t180 91.5q107 0 179 -89t72 -240q0 -152 -69.5 -245t-181.5 -93q-109 0 -180 93t-71 231zM99 312q0 -123 55.5 -194.5t138.5 -71.5q87 0 141.5 73t54.5 204q0 87 -29 157h1q-20 51 -67 85t-99 34q-87 0 -141.5 -72.5t-54.5 -214.5zM340 708l-46 87
l-47 -87h-54l68 108h62l71 -108h-54z" />
    <glyph glyph-name="Otilde" unicode="&#xd5;" horiz-adv-x="574" 
d="M43 313q0 160 71 251.5t180 91.5q107 0 179 -89t72 -240q0 -152 -69.5 -245t-181.5 -93q-109 0 -180 93t-71 231zM99 312q0 -123 55.5 -194.5t138.5 -71.5q87 0 141.5 73t54.5 204q0 87 -29 157h1q-20 51 -67 85t-99 34q-87 0 -141.5 -72.5t-54.5 -214.5zM208 708h-31
q1 39 19.5 62t46.5 23q10 0 48 -19t49 -19q27 0 35 39h31q-3 -41 -20.5 -63t-43.5 -22q-8 0 -47 21t-50 21q-33 0 -37 -43z" />
    <glyph glyph-name="Odieresis" unicode="&#xd6;" horiz-adv-x="574" 
d="M43 313q0 160 71 251.5t180 91.5q107 0 179 -89t72 -240q0 -152 -69.5 -245t-181.5 -93q-109 0 -180 93t-71 231zM99 312q0 -123 55.5 -194.5t138.5 -71.5q87 0 141.5 73t54.5 204q0 87 -29 157h1q-20 51 -67 85t-99 34q-87 0 -141.5 -72.5t-54.5 -214.5zM243 742h-52v74
h52v-74zM381 742h-52v74h52v-74z" />
    <glyph glyph-name="multiply" unicode="&#xd7;" horiz-adv-x="431" 
d="M100 137l-33 41l119 144l-118 143l34 41l117 -143l117 142l33 -40l-117 -143l118 -144l-34 -41l-118 143z" />
    <glyph glyph-name="Oslash" unicode="&#xd8;" horiz-adv-x="574" 
d="M462 579l62 85l24 -25l-65 -88q36 -67 48 -112.5t12 -115.5q0 -153 -71 -243.5t-177 -90.5q-49 0 -84 14v-1q-36 17 -85 61l-62 -84l-24 23l64 88q-40 78 -51 119.5t-11 109.5q0 157 72 247t180 90q46 0 83.5 -16t84.5 -61zM138 136l290 397q-40 39 -68.5 52.5
t-65.5 13.5q-86 0 -141 -71.5t-55 -206.5q0 -58 6.5 -89t33.5 -96zM449 503l-289 -395q61 -62 132 -62q85 0 140 72t55 202q0 93 -38 183z" />
    <glyph glyph-name="Ugrave" unicode="&#xd9;" horiz-adv-x="533" 
d="M419 271v373h54v-373q0 -141 -45.5 -211.5t-158.5 -70.5q-107 0 -156.5 63.5t-49.5 218.5v373h54v-373q0 -120 33.5 -170.5t113.5 -50.5q82 0 118.5 47t36.5 174zM258 816l43 -108h-36l-73 108h66z" />
    <glyph glyph-name="Uacute" unicode="&#xda;" horiz-adv-x="533" 
d="M419 271v373h54v-373q0 -141 -45.5 -211.5t-158.5 -70.5q-107 0 -156.5 63.5t-49.5 218.5v373h54v-373q0 -120 33.5 -170.5t113.5 -50.5q82 0 118.5 47t36.5 174zM261 708h-37l42 108h65z" />
    <glyph glyph-name="Ucircumflex" unicode="&#xdb;" horiz-adv-x="533" 
d="M419 271v373h54v-373q0 -141 -45.5 -211.5t-158.5 -70.5q-107 0 -156.5 63.5t-49.5 218.5v373h54v-373q0 -120 33.5 -170.5t113.5 -50.5q82 0 118.5 47t36.5 174zM315 708l-45 87l-47 -87h-55l68 108h62l72 -108h-55z" />
    <glyph glyph-name="Udieresis" unicode="&#xdc;" horiz-adv-x="533" 
d="M419 271v373h54v-373q0 -141 -45.5 -211.5t-158.5 -70.5q-107 0 -156.5 63.5t-49.5 218.5v373h54v-373q0 -120 33.5 -170.5t113.5 -50.5q82 0 118.5 47t36.5 174zM220 742h-51v74h51v-74zM358 742h-51v74h51v-74z" />
    <glyph glyph-name="Yacute" unicode="&#xdd;" horiz-adv-x="492" 
d="M271 0h-54v274l-202 370h66l104 -195q33 -62 64 -129q16 37 67 134l102 190h63l-210 -370v-274zM234 708h-37l42 108h64z" />
    <glyph glyph-name="Thorn" unicode="&#xde;" horiz-adv-x="492" 
d="M118 0h-54v644h54v-134h142q102 0 151.5 -43.5t49.5 -138.5q0 -85 -44 -141v1q-42 -54 -151 -54h-148v-134zM118 450v-255h150q136 0 136 129q0 40 -16 71.5t-41 41.5h1q-22 13 -82 13h-148z" />
    <glyph glyph-name="germandbls" unicode="&#xdf;" horiz-adv-x="451" 
d="M112 0h-49v447q0 216 151 216q55 0 92 -35t37 -86q0 -22 -6 -45q-5 -22 -27.5 -77t-22.5 -65q0 -20 11 -38v1q8 -15 46 -44h-1q55 -45 72 -72t17 -68q0 -63 -38 -106v1q-37 -40 -89 -40q-86 0 -125 96l42 24q36 -71 80 -71q33 0 56 26t23 62q0 28 -10 43.5t-47 47.5
q-53 44 -71 69.5t-18 55.5q0 26 30.5 100.5t30.5 90.5q0 32 -24 56t-60 24q-51 0 -75.5 -36.5t-24.5 -133.5v-443z" />
    <glyph glyph-name="agrave" unicode="&#xe0;" 
d="M314 51l-16 6q-65 -68 -139 -68q-58 0 -92.5 34.5t-34.5 94.5q0 44 17 73t49 43t64 21.5t76 16.5t71 20v27q0 60 -27 84.5t-77 24.5q-49 0 -74.5 -20t-37.5 -71l-48 8q14 69 55 101t115 32q87 0 115 -40t28 -134v-110q0 -107 2.5 -135.5t14.5 -58.5h-50q-8 24 -11 51z
M309 204v45q-25 -12 -96.5 -29t-87.5 -26v1q-40 -22 -40 -74q0 -39 24 -62.5t66 -23.5q61 0 97.5 42t36.5 127zM198 655l44 -110h-36l-74 110h66z" />
    <glyph glyph-name="aacute" unicode="&#xe1;" 
d="M314 51l-16 6q-65 -68 -139 -68q-58 0 -92.5 34.5t-34.5 94.5q0 44 17 73t49 43t64 21.5t76 16.5t71 20v27q0 60 -27 84.5t-77 24.5q-49 0 -74.5 -20t-37.5 -71l-48 8q14 69 55 101t115 32q87 0 115 -40t28 -134v-110q0 -107 2.5 -135.5t14.5 -58.5h-50q-8 24 -11 51z
M309 204v45q-25 -12 -96.5 -29t-87.5 -26v1q-40 -22 -40 -74q0 -39 24 -62.5t66 -23.5q61 0 97.5 42t36.5 127zM208 545h-38q1 3 43 110h65z" />
    <glyph glyph-name="acircumflex" unicode="&#xe2;" 
d="M314 51l-16 6q-65 -68 -139 -68q-58 0 -92.5 34.5t-34.5 94.5q0 44 17 73t49 43t64 21.5t76 16.5t71 20v27q0 60 -27 84.5t-77 24.5q-49 0 -74.5 -20t-37.5 -71l-48 8q14 69 55 101t115 32q87 0 115 -40t28 -134v-110q0 -107 2.5 -135.5t14.5 -58.5h-50q-8 24 -11 51z
M309 204v45q-25 -12 -96.5 -29t-87.5 -26v1q-40 -22 -40 -74q0 -39 24 -62.5t66 -23.5q61 0 97.5 42t36.5 127zM258 545l-47 88l-47 -88h-55l69 110h62l72 -110h-54z" />
    <glyph glyph-name="atilde" unicode="&#xe3;" 
d="M314 51l-16 6q-65 -68 -139 -68q-58 0 -92.5 34.5t-34.5 94.5q0 44 17 73t49 43t64 21.5t76 16.5t71 20v27q0 60 -27 84.5t-77 24.5q-49 0 -74.5 -20t-37.5 -71l-48 8q14 69 55 101t115 32q87 0 115 -40t28 -134v-110q0 -107 2.5 -135.5t14.5 -58.5h-50q-8 24 -11 51z
M309 204v45q-25 -12 -96.5 -29t-87.5 -26v1q-40 -22 -40 -74q0 -39 24 -62.5t66 -23.5q61 0 97.5 42t36.5 127zM121 546h-33q1 39 20.5 62t46.5 23q10 0 48 -19t50 -19q29 0 36 40h31q-2 -42 -19.5 -64t-44.5 -22q-10 0 -49.5 21t-48.5 21q-34 0 -37 -43z" />
    <glyph glyph-name="adieresis" unicode="&#xe4;" 
d="M314 51l-16 6q-65 -68 -139 -68q-58 0 -92.5 34.5t-34.5 94.5q0 44 17 73t49 43t64 21.5t76 16.5t71 20v27q0 60 -27 84.5t-77 24.5q-49 0 -74.5 -20t-37.5 -71l-48 8q14 69 55 101t115 32q87 0 115 -40t28 -134v-110q0 -107 2.5 -135.5t14.5 -58.5h-50q-8 24 -11 51z
M309 204v45q-25 -12 -96.5 -29t-87.5 -26v1q-40 -22 -40 -74q0 -39 24 -62.5t66 -23.5q61 0 97.5 42t36.5 127zM160 580h-53v75h53v-75zM299 580h-51v75h51v-75z" />
    <glyph glyph-name="aring" unicode="&#xe5;" 
d="M314 51l-16 6q-65 -68 -139 -68q-58 0 -92.5 34.5t-34.5 94.5q0 44 17 73t49 43t64 21.5t76 16.5t71 20v27q0 60 -27 84.5t-77 24.5q-49 0 -74.5 -20t-37.5 -71l-48 8q14 69 55 101t115 32q87 0 115 -40t28 -134v-110q0 -107 2.5 -135.5t14.5 -58.5h-50q-8 24 -11 51z
M309 204v45q-25 -12 -96.5 -29t-87.5 -26v1q-40 -22 -40 -74q0 -39 24 -62.5t66 -23.5q61 0 97.5 42t36.5 127zM144 622q0 30 17.5 51.5t40.5 21.5t40.5 -22t17.5 -53q0 -32 -16.5 -53t-41.5 -21t-41.5 22t-16.5 54zM154 622q0 -26 14.5 -43t34.5 -17q19 0 33.5 16.5
t14.5 42.5q0 25 -14.5 41.5t-33.5 16.5q-20 0 -34.5 -16.5t-14.5 -40.5z" />
    <glyph glyph-name="ae" unicode="&#xe6;" horiz-adv-x="656" 
d="M579 140l51 -8q-40 -143 -164 -143q-85 0 -147 96q-79 -96 -166 -96q-57 0 -92 36h1q-35 35 -35 93q0 43 14 70t43 41t58.5 21.5t75.5 17.5t79 22l1 25q0 62 -23 87.5t-75 25.5q-51 0 -77 -20t-36 -72l-47 7q15 72 53.5 103.5t108.5 31.5q98 0 134 -74q57 74 130 74
q76 0 122 -65.5t46 -172.5q0 -4 -0.5 -9.5t-0.5 -8.5h-287q1 -97 31.5 -140.5t92.5 -43.5q39 0 67.5 26.5t41.5 75.5zM346 271h238q-6 80 -37 118.5t-80 38.5q-52 0 -84.5 -41t-36.5 -116zM298 234l-13 9q-31 -17 -118 -33q-48 -9 -67.5 -31t-19.5 -58q0 -39 23 -62t63 -23
q65 0 98.5 41t33.5 143v14z" />
    <glyph glyph-name="ccedilla" unicode="&#xe7;" horiz-adv-x="369" 
d="M176 -71l14 61q-71 5 -113 67.5t-42 176.5q0 118 47.5 181t125.5 63q58 0 96 -35t50 -103l-46 -8q-24 96 -98 96q-55 0 -90 -48t-35 -145q0 -98 33 -147.5t88 -49.5q92 0 108 120l48 -8q-11 -72 -48.5 -113t-91.5 -47l-12 -45q32 -5 49.5 -21.5t17.5 -39.5
q0 -32 -26.5 -54t-70.5 -22q-30 0 -46 4q0 6 0.5 12t1.5 13t1 11q8 -1 16 -1q80 0 80 43q0 36 -57 39z" />
    <glyph glyph-name="egrave" unicode="&#xe8;" 
d="M324 137l51 -8q-35 -140 -164 -140q-78 0 -130 61h1q-50 62 -50 179q0 119 49 184t127 65q76 0 124 -64t48 -180v-12h-298q4 -92 39.5 -138t90.5 -46q79 0 112 99zM86 271h242q-13 157 -120 157q-50 0 -84 -41.5t-38 -115.5zM207 655l43 -110h-36l-74 110h67z" />
    <glyph glyph-name="eacute" unicode="&#xe9;" 
d="M324 137l51 -8q-35 -140 -164 -140q-78 0 -130 61h1q-50 62 -50 179q0 119 49 184t127 65q76 0 124 -64t48 -180v-12h-298q4 -92 39.5 -138t90.5 -46q79 0 112 99zM86 271h242q-13 157 -120 157q-50 0 -84 -41.5t-38 -115.5zM208 545h-37l43 110h65z" />
    <glyph glyph-name="ecircumflex" unicode="&#xea;" 
d="M324 137l51 -8q-35 -140 -164 -140q-78 0 -130 61h1q-50 62 -50 179q0 119 49 184t127 65q76 0 124 -64t48 -180v-12h-298q4 -92 39.5 -138t90.5 -46q79 0 112 99zM86 271h242q-13 157 -120 157q-50 0 -84 -41.5t-38 -115.5zM266 545l-46 88l-48 -88h-55l70 110h62
l72 -110h-55z" />
    <glyph glyph-name="edieresis" unicode="&#xeb;" 
d="M324 137l51 -8q-35 -140 -164 -140q-78 0 -130 61h1q-50 62 -50 179q0 119 49 184t127 65q76 0 124 -64t48 -180v-12h-298q4 -92 39.5 -138t90.5 -46q79 0 112 99zM86 271h242q-13 157 -120 157q-50 0 -84 -41.5t-38 -115.5zM166 580h-52v75h52v-75zM306 580h-53v75h53
v-75z" />
    <glyph glyph-name="igrave" unicode="&#xec;" horiz-adv-x="205" 
d="M132 0h-49v467h49v-467zM92 655l43 -110h-36l-16 110h9z" />
    <glyph glyph-name="iacute" unicode="&#xed;" horiz-adv-x="205" 
d="M131 0h-48v467h48v-467zM107 545h-37l42 110h66z" />
    <glyph glyph-name="icircumflex" unicode="&#xee;" horiz-adv-x="205" 
d="M132 0h-49v467h49v-467zM157 545l-46 88l-48 -88h-55l69 110h62l73 -110h-55z" />
    <glyph glyph-name="idieresis" unicode="&#xef;" horiz-adv-x="205" 
d="M132 0h-49v467h49v-467zM61 580h-52v75h74zM201 580h-53v75h53v-75z" />
    <glyph glyph-name="eth" unicode="&#xf0;" 
d="M134 651h53q20 -17 49 -48l77 43l11 -28l-67 -39q124 -173 124 -349q0 -109 -49 -175t-126 -66q-79 0 -127 61t-48 176q0 114 45.5 177.5t114.5 63.5q23 0 37.5 -5.5t61.5 -36.5q-33 81 -70 133l-100 -57l-11 31l93 51q-34 38 -68 68zM330 232q0 88 -36 139t-90 51
q-55 0 -88.5 -50t-33.5 -147q0 -93 34.5 -140.5t89.5 -47.5q53 0 88.5 52t35.5 143z" />
    <glyph glyph-name="ntilde" unicode="&#xf1;" 
d="M103 0h-48v467h42v-65l15 -4q43 80 120 80q60 0 96 -43q18 -22 24.5 -51t6.5 -95v-289h-49v286q0 74 -22.5 106t-69.5 32q-115 0 -115 -168v-256zM133 546h-32q1 38 20 61.5t46 23.5q11 0 48 -19t51 -19q28 0 35 40h32q-3 -42 -20.5 -64t-44.5 -22q-10 0 -49.5 21
t-48.5 21q-34 0 -37 -43z" />
    <glyph glyph-name="ograve" unicode="&#xf2;" 
d="M29 233q0 117 49 181t129 64q77 0 127 -63t50 -177q0 -122 -49 -185.5t-128 -63.5q-78 0 -128 63.5t-50 180.5zM80 233q0 -95 36 -145t92 -50q54 0 89.5 51.5t35.5 143.5q0 95 -36 145t-92 50q-54 0 -89.5 -51t-35.5 -144zM202 655l43 -110h-36l-74 110h67z" />
    <glyph glyph-name="oacute" unicode="&#xf3;" 
d="M29 233q0 117 49 181t129 64q77 0 127 -63t50 -177q0 -122 -49 -185.5t-128 -63.5q-78 0 -128 63.5t-50 180.5zM80 233q0 -95 36 -145t92 -50q54 0 89.5 51.5t35.5 143.5q0 95 -36 145t-92 50q-54 0 -89.5 -51t-35.5 -144zM208 545h-38q1 3 43 110h65z" />
    <glyph glyph-name="ocircumflex" unicode="&#xf4;" 
d="M29 233q0 117 49 181t129 64q77 0 127 -63t50 -177q0 -122 -49 -185.5t-128 -63.5q-78 0 -128 63.5t-50 180.5zM80 233q0 -95 36 -145t92 -50q54 0 89.5 51.5t35.5 143.5q0 95 -36 145t-92 50q-54 0 -89.5 -51t-35.5 -144zM253 545l-46 88l-48 -88h-55l69 110h62l73 -110
h-55z" />
    <glyph glyph-name="otilde" unicode="&#xf5;" 
d="M29 233q0 117 49 181t129 64q77 0 127 -63t50 -177q0 -122 -49 -185.5t-128 -63.5q-78 0 -128 63.5t-50 180.5zM80 233q0 -95 36 -145t92 -50q54 0 89.5 51.5t35.5 143.5q0 95 -36 145t-92 50q-54 0 -89.5 -51t-35.5 -144zM118 546h-32q1 39 20.5 62t45.5 23q11 0 49 -19
t50 -19q27 0 36 40h31q-3 -42 -20.5 -64t-44.5 -22q-9 0 -49 21t-48 21q-33 0 -38 -43z" />
    <glyph glyph-name="odieresis" unicode="&#xf6;" 
d="M29 233q0 117 49 181t129 64q77 0 127 -63t50 -177q0 -122 -49 -185.5t-128 -63.5q-78 0 -128 63.5t-50 180.5zM80 233q0 -95 36 -145t92 -50q54 0 89.5 51.5t35.5 143.5q0 95 -36 145t-92 50q-54 0 -89.5 -51t-35.5 -144zM160 580h-53v75h53v-75zM299 580h-51v75h51v-75
z" />
    <glyph glyph-name="divide" unicode="&#xf7;" horiz-adv-x="494" 
d="M289 421h-75v76h75v-76zM463 350v-58h-423v58h423zM289 146h-75v75h75v-75z" />
    <glyph glyph-name="oslash" unicode="&#xf8;" horiz-adv-x="451" 
d="M346 434l36 58l22 -20l-38 -61q28 -47 36.5 -84t8.5 -94q0 -118 -49 -181t-132 -63q-54 0 -105 41l-39 -61l-21 20l39 63q-30 43 -39 81.5t-9 92.5q0 123 48.5 187.5t127.5 64.5q52 0 114 -44zM134 99l183 290q-42 39 -84 39q-54 0 -90 -50.5t-36 -142.5q0 -70 27 -136z
M335 363l-181 -288q36 -37 77 -37q57 0 93 50.5t36 146.5q0 38 -4 58.5t-21 69.5z" />
    <glyph glyph-name="ugrave" unicode="&#xf9;" 
d="M357 0h-42v67l-14 4q-46 -82 -121 -82q-69 0 -98 46t-29 140v292h49v-260q0 -93 20 -129t71 -36q115 0 115 174v251h49v-467zM178 655l43 -110h-36l-74 110h67z" />
    <glyph glyph-name="uacute" unicode="&#xfa;" 
d="M357 0h-42v67l-14 4q-46 -82 -121 -82q-69 0 -98 46t-29 140v292h49v-260q0 -93 20 -129t71 -36q115 0 115 174v251h49v-467zM208 545h-38q1 3 43 110h102z" />
    <glyph glyph-name="ucircumflex" unicode="&#xfb;" 
d="M357 0h-42v67l-14 4q-46 -82 -121 -82q-69 0 -98 46t-29 140v292h49v-260q0 -93 20 -129t71 -36q115 0 115 174v251h49v-467zM256 545l-47 88l-47 -88h-55l69 110h62l77 -110h-59z" />
    <glyph glyph-name="udieresis" unicode="&#xfc;" 
d="M357 0h-42v67l-14 4q-46 -82 -121 -82q-69 0 -98 46t-29 140v292h49v-260q0 -93 20 -129t71 -36q115 0 115 174v251h49v-467zM163 580h-52v75h52v-75zM303 580h-52v75h52v-75z" />
    <glyph glyph-name="yacute" unicode="&#xfd;" horiz-adv-x="369" 
d="M52 -190l-5 59q13 -4 28 -4q40 0 53 18t41 107l-148 477h53l82 -275q15 -51 29 -115h16q17 79 28 113l83 277h49l-148 -482q-35 -114 -59 -148t-67 -34q-17 0 -35 7zM189 545h-38l44 110h64z" />
    <glyph glyph-name="thorn" unicode="&#xfe;" 
d="M103 -186h-49v837h49v-254q41 54 63 67.5t56 13.5q68 0 113.5 -63t45.5 -175q0 -116 -47.5 -183.5t-116.5 -67.5q-21 0 -33.5 3.5t-33 21.5t-47.5 54v-254zM97 230q0 -93 32.5 -142.5t83.5 -49.5q49 0 83.5 51.5t34.5 146.5t-33.5 145.5t-84.5 50.5q-45 0 -82 -54h1
q-35 -50 -35 -148z" />
    <glyph glyph-name="ydieresis" unicode="&#xff;" horiz-adv-x="369" 
d="M52 -190l-5 59q13 -4 28 -4q40 0 53 18t41 107l-148 477h53l82 -275q15 -51 29 -115h16q17 79 28 113l83 277h49l-148 -482q-35 -114 -59 -148t-67 -34q-17 0 -35 7zM143 580h-53v75h53v-75zM282 580h-52v75h52v-75z" />
    <glyph glyph-name="ring" unicode="&#x2da;" horiz-adv-x="376" 
d="M134 625q0 -23 19.5 -40t45.5 -17q25 0 44 16.5t19 39.5q0 21 -19 37.5t-44 16.5q-26 0 -45.5 -15.5t-19.5 -37.5zM97 625q0 38 29.5 66.5t71.5 28.5q40 0 70.5 -29t30.5 -67q0 -40 -29.5 -69.5t-70.5 -29.5q-44 0 -73 29.5t-29 70.5z" />
    <glyph glyph-name="tilde" unicode="&#x2dc;" horiz-adv-x="360" 
d="M54 626h-40q20 92 97 92q10 0 71 -22.5t85 -22.5q25 0 39 9.5t20 36.5h36q-7 -45 -31.5 -68.5t-60.5 -23.5q-17 0 -76.5 24t-75.5 24q-53 0 -64 -49z" />
    <glyph glyph-name="afii10023" unicode="&#x401;" horiz-adv-x="492" 
d="M453 0h-388v644h375v-60h-321v-221h300v-59h-300v-244h334v-60zM209 742h-51v74h51v-74zM348 742h-52v74h52v-74z" />
    <glyph glyph-name="afii10017" unicode="&#x410;" horiz-adv-x="492" 
d="M65 0h-57l202 644h65l216 -644h-63l-63 200h-240zM204 460l-64 -206h209l-61 195q-26 80 -39 140l-16 -1q-16 -85 -29 -128z" />
    <glyph glyph-name="afii10018" unicode="&#x411;" horiz-adv-x="484" 
d="M67 0v644h335v-60h-281v-222h139q99 0 148.5 -42t49.5 -137q0 -183 -187 -183h-204zM121 305v-248h153q62 0 93.5 29t31.5 95q0 67 -35 95.5t-138 28.5h-105z" />
    <glyph glyph-name="afii10019" unicode="&#x412;" horiz-adv-x="492" 
d="M259 0h-197v644h194q80 0 126 -42t46 -118q0 -90 -88 -143q54 -20 84 -61t30 -97q0 -183 -195 -183zM115 584v-218h127q70 0 101.5 24.5t31.5 83.5q0 58 -30 84t-112 26h-118zM115 306v-246h144q73 0 105.5 29.5t32.5 93.5q0 61 -35 92t-112 31h-135z" />
    <glyph glyph-name="afii10020" unicode="&#x413;" horiz-adv-x="394" 
d="M65 0v645h312v-61h-257v-584h-55z" />
    <glyph glyph-name="afii10021" unicode="&#x414;" horiz-adv-x="500" 
d="M114 557v87h312v-584h49v-215h-47v155h-376v-155h-46v215h38q70 128 70 497zM372 60v524h-207v-42q0 -101 -12.5 -246.5t-38.5 -235.5h258z" />
    <glyph glyph-name="afii10022" unicode="&#x415;" horiz-adv-x="492" 
d="M453 0h-388v644h375v-60h-321v-221h300v-59h-300v-244h334v-60z" />
    <glyph glyph-name="afii10024" unicode="&#x416;" horiz-adv-x="681" 
d="M318 644h56v-290q23 0 38.5 1.5t29 10t21 15t17.5 28t15.5 35.5t18.5 51q9 27 12.5 35.5t11 28t10.5 25t10.5 18.5t12 15.5t14 10t17.5 8.5t20.5 4t25.5 3.5t31 0.5v-58h-22q-37 0 -55.5 -21t-40.5 -92q-28 -80 -42.5 -99.5t-63.5 -45.5q23 -8 45.5 -28t40 -43t38.5 -59
t34.5 -63.5t34 -70t31.5 -64.5h-70l-88 175q-44 87 -70 111t-77 24v-310h-56v310q-55 0 -79.5 -25t-69.5 -110l-88 -175h-69l106 208q48 95 119 120q-50 25 -66 47t-41 98q-24 75 -42 94t-56 19h-20v58q35 0 50.5 -2t33.5 -8t29 -23.5t23 -43t29 -72.5q34 -97 55 -119
t86 -22v290z" />
    <glyph glyph-name="afii10025" unicode="&#x417;" horiz-adv-x="446" 
d="M36 172l51 16q11 -54 49 -98t90 -44q58 0 95 37.5t37 93.5q0 59 -39 94h1q-39 34 -101 34h-25v58q67 2 104.5 28.5t37.5 88.5q0 47 -30 82t-81 35q-58 0 -92.5 -45.5t-37.5 -105.5l-50 14q25 196 181 196q73 0 118 -51t45 -121q0 -87 -81 -147q107 -35 107 -157
q0 -83 -52.5 -137t-136.5 -54q-145 0 -190 183z" />
    <glyph glyph-name="afii10026" unicode="&#x418;" horiz-adv-x="530" 
d="M65 0v644h47v-519l15 -4l289 523h57v-644h-47v519l-15 3l-289 -522h-57z" />
    <glyph glyph-name="afii10027" unicode="&#x419;" horiz-adv-x="530" 
d="M65 0v644h47v-519l15 -4l289 523h57v-644h-47v519l-15 3l-289 -522h-57zM352 806h27q-7 -49 -33 -74t-67 -25q-40 0 -65.5 25t-32.5 74h27q14 -61 70 -61q60 0 74 61z" />
    <glyph glyph-name="afii10028" unicode="&#x41a;" horiz-adv-x="429" 
d="M65 0v644h54v-290q61 0 81.5 22t56.5 119q32 93 57.5 122t89.5 29q11 0 18 -1v-59h-22q-35 0 -54 -19t-43 -94q-19 -58 -31.5 -81.5t-25 -33.5t-50.5 -30q70 -23 120 -120l105 -208h-69q-108 213 -135 252q-36 53 -72 57q-5 1 -10 1l-16 -1v-309h-54z" />
    <glyph glyph-name="afii10029" unicode="&#x41b;" horiz-adv-x="484" 
d="M104 187v457h322v-644h-54v584h-214v-350q0 -134 -19.5 -189.5t-77.5 -55.5q-23 0 -47 8l9 58q13 -5 23 -5q30 0 44 25t14 112z" />
    <glyph glyph-name="afii10030" unicode="&#x41c;" horiz-adv-x="615" 
d="M112 0h-51v644h92l155 -584h14l158 584h81v-644h-51v607l-17 -57l-155 -550h-51l-175 617v-617z" />
    <glyph glyph-name="afii10031" unicode="&#x41d;" horiz-adv-x="533" 
d="M117 0h-54v644h54v-272h301v272h54v-644h-54v312h-301v-312z" />
    <glyph glyph-name="afii10032" unicode="&#x41e;" horiz-adv-x="574" 
d="M43 313q0 160 71 251.5t180 91.5q107 0 179 -89t72 -240q0 -152 -69.5 -245t-181.5 -93q-109 0 -180 93t-71 231zM99 312q0 -123 55.5 -194.5t138.5 -71.5q87 0 141.5 73t54.5 204q0 87 -29 157h1q-20 51 -67 85t-99 34q-87 0 -141.5 -72.5t-54.5 -214.5z" />
    <glyph glyph-name="afii10033" unicode="&#x41f;" horiz-adv-x="533" 
d="M121 584v-584h-55v644h409v-644h-54v584h-300z" />
    <glyph glyph-name="afii10034" unicode="&#x420;" horiz-adv-x="492" 
d="M118 0h-54v644h196q105 0 152.5 -43t47.5 -138q0 -193 -194 -193h-148v-270zM118 584v-255h150q70 0 103 32t33 98q0 43 -16 72v-1q-16 31 -41 43h1q-25 11 -82 11h-148z" />
    <glyph glyph-name="afii10035" unicode="&#x421;" horiz-adv-x="533" 
d="M447 212l55 -17q-24 -102 -80.5 -154t-138.5 -52q-74 0 -124 35v-1q-53 37 -85 117.5t-32 186.5q0 154 68.5 241.5t176.5 87.5q75 0 129 -46t77 -132l-54 -16q-39 137 -151 137q-87 0 -138.5 -68.5t-51.5 -203.5q0 -138 49 -209.5t135 -71.5q61 0 105.5 42.5t59.5 123.5z
" />
    <glyph glyph-name="afii10036" unicode="&#x422;" horiz-adv-x="451" 
d="M257 0h-53v584h-180v60h413v-60h-180v-584z" />
    <glyph glyph-name="afii10037" unicode="&#x423;" horiz-adv-x="468" 
d="M230 167l-216 477h53l184 -420l160 420h52l-199 -502q-39 -97 -61 -124t-62 -27q-24 0 -60 13v53q24 -14 52 -14q32 0 52 23t45 101z" />
    <glyph glyph-name="afii10038" unicode="&#x424;" horiz-adv-x="561" 
d="M260 565v79h49v-79q107 -7 165.5 -72.5t58.5 -167.5q0 -101 -58.5 -167t-165.5 -73v-85h-49v85q-101 4 -164 69h1q-62 65 -62 171t62 171h-1q63 65 164 69zM309 508v-365q81 5 124.5 51t43.5 131q0 83 -42.5 130t-125.5 53zM260 143v365q-81 -5 -125 -53v1
q-44 -49 -44 -131q0 -83 44.5 -130t124.5 -52z" />
    <glyph glyph-name="afii10039" unicode="&#x425;" horiz-adv-x="492" 
d="M81 0h-65l205 336l-180 308h64l97 -165q31 -53 50 -98q31 58 51 91l108 172h56l-185 -303l200 -341h-67l-135 231q-13 23 -31 61l-34 -66z" />
    <glyph glyph-name="afii10040" unicode="&#x426;" horiz-adv-x="546" 
d="M64 0v644h54v-584h301v584h54v-584h49v-244h-45v184h-413z" />
    <glyph glyph-name="afii10041" unicode="&#x427;" horiz-adv-x="492" 
d="M434 644v-644h-54v272q-107 -49 -178 -49q-88 0 -126 61t-38 174v186h54v-177q0 -99 30 -142.5t90 -43.5q80 0 168 44v319h54z" />
    <glyph glyph-name="afii10042" unicode="&#x428;" horiz-adv-x="677" 
d="M63 0v644h55v-584h198v584h54v-584h199v584h53v-644h-559z" />
    <glyph glyph-name="afii10043" unicode="&#x429;" horiz-adv-x="692" 
d="M63 0v644h54v-584h198v584h55v-584h198v584h54v-584h49v-244h-46v184h-562z" />
    <glyph glyph-name="afii10044" unicode="&#x42a;" horiz-adv-x="584" 
d="M5 584v60h219v-283h139q99 0 149 -41.5t50 -137.5q0 -80 -44 -131t-150 -51h-198v584h-165zM224 304v-247h141q72 0 105 29.5t33 95.5q0 68 -37.5 95t-136.5 27h-105z" />
    <glyph glyph-name="afii10045" unicode="&#x42b;" horiz-adv-x="689" 
d="M65 0v644h54v-283h138q100 0 150 -41.5t50 -136.5q0 -80 -44 -131.5t-150 -51.5h-198zM119 304v-247h140q72 0 105 29.5t33 96.5q0 68 -37 94.5t-136 26.5h-105zM629 0h-54v644h54v-644z" />
    <glyph glyph-name="afii10046" unicode="&#x42c;" horiz-adv-x="484" 
d="M66 0v644h54v-283h139q98 0 148.5 -41.5t50.5 -136.5q0 -183 -194 -183h-198zM120 304v-247h141q72 0 104.5 29.5t32.5 96.5q0 65 -35.5 93t-136.5 28h-106z" />
    <glyph glyph-name="afii10047" unicode="&#x42d;" horiz-adv-x="530" 
d="M238 303v60h199q-12 118 -60 176t-124 58q-119 0 -154 -137l-53 18q22 86 76 132t131 46q112 0 177.5 -95t65.5 -232q0 -94 -25 -169t-80.5 -123t-133.5 -48q-174 0 -218 204q8 2 24 7.5t27 8.5q20 -91 62.5 -128t107.5 -37q78 0 127 70v-1q49 71 52 190h-201z" />
    <glyph glyph-name="afii10048" unicode="&#x42e;" horiz-adv-x="745" 
d="M64 0v644h54v-297h123q7 142 72 225.5t164 83.5q100 0 168.5 -88.5t68.5 -241.5t-65.5 -245t-173.5 -92q-102 0 -161.5 81t-71.5 218h-124v-288h-54zM295 319q0 -127 49.5 -200t131.5 -73q85 0 133.5 73t48.5 205q0 130 -49 203t-131 73q-83 0 -133 -74t-50 -207z" />
    <glyph glyph-name="afii10049" unicode="&#x42f;" horiz-adv-x="533" 
d="M477 0h-54v294h-92q-44 0 -58 -7q-39 -18 -98 -127q-7 -13 -14 -27l-69 -133h-70l88 167q2 4 8.5 16.5t8.5 15.5t8 13.5t9 14t10 12.5t13.5 14t16.5 13t21 15.5t25 15.5q-82 14 -125.5 59.5t-43.5 116.5q0 86 43 128.5t141 42.5h232v-644zM423 352v237h-181
q-61 0 -93 -30.5t-32 -86.5q0 -120 142 -120h164z" />
    <glyph glyph-name="afii10065" unicode="&#x430;" 
d="M314 51l-16 6q-65 -68 -139 -68q-58 0 -92.5 34.5t-34.5 94.5q0 44 17 73t49 43t64 21.5t76 16.5t71 20v27q0 60 -27 84.5t-77 24.5q-49 0 -74.5 -20t-37.5 -71l-48 8q14 69 55 101t115 32q87 0 115 -40t28 -134v-110q0 -107 2.5 -135.5t14.5 -58.5h-50q-8 24 -11 51z
M309 204v45q-25 -12 -96.5 -29t-87.5 -26v1q-40 -22 -40 -74q0 -39 24 -62.5t66 -23.5q61 0 97.5 42t36.5 127z" />
    <glyph glyph-name="afii10066" unicode="&#x431;" horiz-adv-x="423" 
d="M343 667h45q-5 -53 -27 -67t-101 -14q-107 0 -143 -43.5t-38 -162.5l15 -5q49 92 130 92q76 0 124 -65t48 -169q0 -103 -46.5 -173.5t-127.5 -70.5q-42 0 -72 12.5t-57 47t-40.5 105t-13.5 177.5q0 191 51 257v-1q52 64 158 64q62 0 75 2.5t20 13.5zM344 235
q0 85 -34 132h1q-33 50 -89 50q-59 0 -92 -52t-33 -145q0 -87 35.5 -135t90.5 -48q53 0 87 54.5t34 143.5z" />
    <glyph glyph-name="afii10067" unicode="&#x432;" horiz-adv-x="392" 
d="M56 0v467h146q67 0 105.5 -26t38.5 -94q0 -64 -56 -105q74 -33 74 -116q0 -57 -33 -91.5t-105 -34.5h-170zM104 417v-154h82q56 0 83 16.5t27 60.5q0 43 -24.5 60t-83.5 17h-84zM104 213v-164h99q60 0 85 19.5t25 61.5q0 44 -25.5 63.5t-91.5 19.5h-92z" />
    <glyph glyph-name="afii10068" unicode="&#x433;" horiz-adv-x="270" 
d="M57 0v467h211v-50h-162v-417h-49z" />
    <glyph glyph-name="afii10069" unicode="&#x434;" horiz-adv-x="430" 
d="M109 467h259v-418h43v-187h-37v138h-332v-138h-37v187h32q72 120 72 418zM319 417h-172q-8 -246 -65 -368h237v368z" />
    <glyph glyph-name="afii10070" unicode="&#x435;" 
d="M324 137l51 -8q-35 -140 -164 -140q-78 0 -130 61h1q-50 62 -50 179q0 119 49 184t127 65q76 0 124 -64t48 -180v-12h-298q4 -92 39.5 -138t90.5 -46q79 0 112 99zM86 271h242q-13 157 -120 157q-50 0 -84 -41.5t-38 -115.5z" />
    <glyph glyph-name="afii10072" unicode="&#x436;" horiz-adv-x="494" 
d="M227 467h50v-210q46 0 59.5 15.5t41.5 93.5q26 73 40 87t67 14l1 -50h-11q-24 0 -35.5 -8.5t-19.5 -34.5q-4 -11 -10 -31.5t-8 -26t-6.5 -17.5t-8 -15.5t-8.5 -11t-12.5 -11.5t-16 -9.5t-22.5 -13.5q59 -19 100 -101l67 -137h-53l-70 145q-24 48 -42 63.5t-53 15.5v-224
h-50v224q-35 0 -54 -15t-42 -64l-69 -145h-54l68 137q40 81 99 100q-12 7 -19.5 11.5t-15.5 11t-11.5 9t-9 11t-7.5 11t-6.5 14.5t-6 17t-7.5 23.5t-9 28.5q-8 25 -19.5 34t-35.5 9h-10l1 50q36 0 51 -6t27 -24q16 -35 30 -72t19.5 -53t16 -31t24.5 -19.5t40 -4.5v210z" />
    <glyph glyph-name="afii10073" unicode="&#x437;" horiz-adv-x="338" 
d="M157 220l-12 -1v47q50 0 75.5 17.5t25.5 62.5q0 38 -20.5 60t-53.5 22q-60 0 -87 -80l-46 10q31 120 134 120q57 0 91.5 -39.5t34.5 -95.5q0 -53 -53 -95q66 -45 66 -122q0 -63 -37 -100t-102 -37q-124 0 -148 132l46 11q13 -45 39.5 -70t63.5 -25q39 0 63.5 27t24.5 65
q0 33 -15 56v-1q-17 23 -33.5 29.5t-56.5 6.5z" />
    <glyph glyph-name="afii10074" unicode="&#x438;" horiz-adv-x="413" 
d="M56 0v467h48v-365l16 -4l187 369h57v-467h-49v362l-15 4l-187 -366h-57z" />
    <glyph glyph-name="afii10075" unicode="&#x439;" 
d="M56 0v467h48v-365l16 -4l187 369h57v-467h-49v362l-15 4l-187 -366h-57zM280 650h28q-7 -49 -33 -74.5t-67 -25.5t-67.5 25.5t-33.5 74.5h28q15 -62 71 -62q60 0 74 62z" />
    <glyph glyph-name="afii10076" unicode="&#x43a;" horiz-adv-x="323" 
d="M56 0v467h48v-210q47 0 62 18q5 6 34.5 80t36.5 85h-1q13 17 27 22t50 5l1 -50h-11q-24 0 -35.5 -9.5t-19.5 -33.5q-3 -10 -9 -29t-7.5 -24t-6.5 -17.5t-6.5 -15t-7 -11t-9.5 -10.5t-11.5 -8.5t-15 -10.5t-19.5 -10q58 -19 100 -101l67 -137h-53l-70 145q-23 47 -42 63
t-54 16v-224h-48z" />
    <glyph glyph-name="afii10077" unicode="&#x43b;" horiz-adv-x="430" 
d="M88 156v311h296v-467h-50v417h-196v-251q0 -103 -12.5 -136t-66.5 -33q-13 0 -45 2v51q40 1 49 5q11 3 14.5 6t7 25t3.5 70z" />
    <glyph glyph-name="afii10078" unicode="&#x43c;" horiz-adv-x="507" 
d="M57 0v467h89l111 -412l123 412h81v-467h-50v384l-16 2l-117 -386h-47l-109 405l-18 -3v-402h-47z" />
    <glyph glyph-name="afii10079" unicode="&#x43d;" horiz-adv-x="407" 
d="M56 0v467h48v-202h206v202h49v-467h-49v215h-206v-215h-48z" />
    <glyph glyph-name="afii10080" unicode="&#x43e;" 
d="M29 233q0 117 49 181t129 64q77 0 127 -63t50 -177q0 -122 -49 -185.5t-128 -63.5q-78 0 -128 63.5t-50 180.5zM80 233q0 -95 36 -145t92 -50q54 0 89.5 51.5t35.5 143.5q0 95 -36 145t-92 50q-54 0 -89.5 -51t-35.5 -144z" />
    <glyph glyph-name="afii10081" unicode="&#x43f;" horiz-adv-x="400" 
d="M56 0v467h296v-467h-49v417h-198v-417h-49z" />
    <glyph glyph-name="afii10082" unicode="&#x440;" 
d="M103 -186h-49v653h44v-88q58 99 124 99q68 0 113.5 -63t45.5 -175q0 -116 -47.5 -183.5t-116.5 -67.5q-58 0 -114 82v-257zM97 230q0 -93 32.5 -142.5t83.5 -49.5q49 0 83.5 51.5t34.5 146.5t-33.5 145.5t-84.5 50.5q-45 0 -82 -54h1q-35 -50 -35 -148z" />
    <glyph glyph-name="afii10083" unicode="&#x441;" horiz-adv-x="369" 
d="M314 158l48 -8q-12 -78 -54.5 -119.5t-102.5 -41.5q-77 0 -123.5 62.5t-46.5 182.5q0 118 47.5 181t125.5 63q58 0 96 -35t50 -103l-46 -8q-24 96 -98 96q-55 0 -90 -48t-35 -145q0 -98 33 -147.5t88 -49.5q92 0 108 120z" />
    <glyph glyph-name="afii10084" unicode="&#x442;" horiz-adv-x="338" 
d="M20 417v50h305v-50h-128v-417h-50v417h-127z" />
    <glyph glyph-name="afii10085" unicode="&#x443;" horiz-adv-x="369" 
d="M52 -190l-5 59q13 -4 28 -4q40 0 53 18t41 107l-148 477h53l82 -275q15 -51 29 -115h16q17 79 28 113l83 277h49l-148 -482q-35 -114 -59 -148t-67 -34q-17 0 -35 7z" />
    <glyph glyph-name="afii10086" unicode="&#x444;" horiz-adv-x="607" 
d="M285 398v253h50v-251q55 78 109 78q63 0 103.5 -68t40.5 -176q0 -106 -41.5 -175.5t-105.5 -69.5q-51 0 -106 70v-245h-50v246q-54 -71 -107 -71q-64 0 -105 70t-41 179q0 116 43 178t103 62q54 0 107 -80zM334 226q0 -189 97 -189q47 0 77 52t30 148q0 95 -29 143.5
t-76 48.5q-99 0 -99 -203zM82 234q0 -100 30 -148t77 -48q97 0 97 189q0 201 -101 201q-46 0 -74.5 -49t-28.5 -145z" />
    <glyph glyph-name="afii10087" unicode="&#x445;" horiz-adv-x="369" 
d="M78 0h-60l140 243l-130 224h63l94 -179l103 179h59l-131 -219l142 -248h-61l-79 146l-30 56z" />
    <glyph glyph-name="afii10088" unicode="&#x446;" horiz-adv-x="423" 
d="M56 0v467h49v-418h205v418h49v-418h44v-235h-37v186h-310z" />
    <glyph glyph-name="afii10089" unicode="&#x447;" horiz-adv-x="384" 
d="M31 349v118h49v-83q0 -84 20.5 -123t77.5 -39q43 0 109 28v217h49v-467h-49v200q-72 -28 -126 -28q-59 0 -94.5 46t-35.5 131z" />
    <glyph glyph-name="afii10090" unicode="&#x448;" horiz-adv-x="592" 
d="M56 0v467h49v-417h172v417h50v-417h172v417h48v-467h-491z" />
    <glyph glyph-name="afii10091" unicode="&#x449;" horiz-adv-x="607" 
d="M55 0v467h49v-418h172v418h50v-418h172v418h48v-418h45v-235h-37v186h-499z" />
    <glyph glyph-name="afii10092" unicode="&#x44a;" horiz-adv-x="461" 
d="M5 417v50h174v-190h95q75 0 119.5 -35.5t44.5 -103.5q0 -60 -36.5 -99t-111.5 -39h-160v417h-125zM179 227v-179h80q74 0 101 24.5t27 65.5q0 44 -27.5 66.5t-90.5 22.5h-90z" />
    <glyph glyph-name="afii10093" unicode="&#x44b;" horiz-adv-x="549" 
d="M53 0v467h49v-190h95q84 0 124 -39t40 -100q0 -58 -36.5 -98t-111.5 -40h-160zM102 227v-178h80q75 0 101.5 24.5t26.5 64.5q0 44 -27.5 66.5t-91.5 22.5h-89zM496 0h-49v467h49v-467z" />
    <glyph glyph-name="afii10094" unicode="&#x44c;" horiz-adv-x="384" 
d="M55 0v467h48v-190h95q84 0 124 -39t40 -100q0 -58 -36.5 -98t-111.5 -40h-159zM103 227v-178h80q129 0 129 89t-120 89h-89z" />
    <glyph glyph-name="afii10095" unicode="&#x44d;" horiz-adv-x="376" 
d="M160 214v50h141q-8 75 -38.5 119.5t-80.5 44.5q-83 0 -102 -97l-48 9q9 62 48.5 100t99.5 38q78 0 124.5 -66t46.5 -179q0 -110 -45 -177t-119 -67q-68 0 -108.5 43.5t-53.5 117.5q7 1 48 8q18 -120 109 -120q105 0 119 176h-141z" />
    <glyph glyph-name="afii10096" unicode="&#x44e;" horiz-adv-x="553" 
d="M55 0v467h49v-203h99q20 214 163 214q75 0 119 -65t44 -178q0 -117 -42.5 -181.5t-121.5 -64.5q-72 0 -113 58t-49 167h-99v-214h-49zM367 426q-55 0 -84.5 -48.5t-29.5 -136.5q0 -101 29.5 -152t81.5 -51q50 0 82.5 45.5t32.5 146.5q0 196 -112 196z" />
    <glyph glyph-name="afii10097" unicode="&#x44f;" horiz-adv-x="400" 
d="M176 467h175v-467h-49v189h-48q-14 0 -26 -3.5t-21.5 -7t-20 -15t-17 -19t-18.5 -27t-18.5 -31.5t-22 -40.5t-25.5 -45.5h-61l65 117q32 56 63 65v16q-109 20 -109 136q0 62 35.5 97.5t97.5 35.5zM302 238v179h-105q-104 0 -104 -85q0 -48 28 -71t98 -23h83z" />
    <glyph glyph-name="afii10071" unicode="&#x451;" 
d="M324 137l51 -8q-35 -140 -164 -140q-78 0 -130 61h1q-50 62 -50 179q0 119 49 184t127 65q76 0 124 -64t48 -180v-12h-298q4 -92 39.5 -138t90.5 -46q79 0 112 99zM86 271h242q-13 157 -120 157q-50 0 -84 -41.5t-38 -115.5zM166 580h-52v75h52v-75zM306 580h-53v75h53
v-75z" />
    <glyph glyph-name="uni10A0" unicode="&#x10a0;" horiz-adv-x="509" 
d="M449 260v-69q0 -91 -53.5 -143t-140.5 -52q-84 0 -139.5 53.5t-55.5 144.5v31q0 44 48 115q7 -3 41 -20q-27 -50 -27 -95v-34q0 -73 29.5 -109.5t103.5 -36.5q131 0 131 146v69q0 108 -101 207q-42 41 -69.5 92.5t-27.5 93.5v43h57v-43q0 -83 103 -176q101 -92 101 -217z
" />
    <glyph glyph-name="uni10A1" unicode="&#x10a1;" horiz-adv-x="509" 
d="M122 279v-85q0 -66 36 -107.5t96 -41.5q62 0 97 40t35 103v94q0 67 -37.5 108.5t-94.5 41.5q-62 0 -97 -41.5t-35 -111.5zM142 706h61q1 -21 18 -40t37.5 -31t37.5 -29.5t17 -35.5q0 -51 -22 -92q45 0 101.5 -58t56.5 -135v-103q0 -70 -57 -128t-138 -58q-83 0 -138.5 57
t-55.5 130v102q0 82 56 137.5t120 55.5q16 36 16 88q0 14 -17 29t-37.5 26.5t-37.5 34t-18 50.5z" />
    <glyph glyph-name="uni10A2" unicode="&#x10a2;" horiz-adv-x="573" 
d="M450 206v59q0 58 -43 105.5t-100 47.5h-32q-68 0 -110.5 -43t-42.5 -124v-45q0 -65 45 -113t118 -48q85 0 125 45.5t40 115.5zM513 266v-67q0 -80 -64 -141.5t-167 -61.5q-88 0 -155 63t-67 140v55q4 99 73.5 156.5t169.5 57.5q50 52 50 100q0 87 -93 87q-98 0 -98 -67
v-58h-54v58q0 47 43.5 82.5t108.5 35.5q71 0 109 -36.5t38 -93.5q0 -56 -50 -112q43 -8 99.5 -63.5t56.5 -134.5z" />
    <glyph glyph-name="uni10A3" unicode="&#x10a3;" horiz-adv-x="758" 
d="M636 447v39q0 92 -26.5 130.5t-89.5 38.5q-65 0 -92 -36t-27 -131v-38q0 -92 28 -133.5t91 -41.5q62 0 89 41.5t27 130.5zM548 -5h-75q-6 66 -174 97q-76 -2 -143 -47l-22 54q51 12 118 19q-192 146 -192 335v66q0 80 47 133.5t134 53.5q71 0 138 -70q48 70 141 70
q89 0 133.5 -59.5t44.5 -160.5v-41q0 -220 -178 -220q-85 0 -133 59t-48 165v35q0 43 20 118q-21 30 -48 41.5t-70 11.5q-58 0 -89 -35.5t-31 -100.5v-63q0 -52 12.5 -99.5t41.5 -94.5t84.5 -86t133.5 -63q152 -48 155 -118z" />
    <glyph glyph-name="uni10A4" unicode="&#x10a4;" horiz-adv-x="525" 
d="M450 554v-400q0 -74 -53.5 -116t-141.5 -42q-84 0 -139 49t-55 119q0 76 28 141h58q-25 -63 -25 -142q0 -57 33.5 -87.5t99.5 -30.5q57 0 94.5 29t37.5 82v398q0 44 -30.5 72.5t-83.5 28.5q-52 0 -87.5 -27.5t-35.5 -74.5q0 -33 11 -85h-50q-17 48 -17 85q0 68 49 110.5
t124 42.5q81 0 132 -41.5t51 -110.5z" />
    <glyph glyph-name="uni10A5" unicode="&#x10a5;" horiz-adv-x="510" 
d="M450 235v-77q0 -67 -53.5 -114.5t-141.5 -47.5q-83 0 -138.5 46t-55.5 113v37q0 41 28 100h53q-20 -62 -20 -104v-27q0 -56 37 -86t96 -30q64 0 98 29t34 84v77q0 103 -77 117h-61v50h61q69 0 69 128v22q0 50 -30.5 76.5t-87.5 26.5q-53 0 -86 -29.5t-33 -60.5v-16
q0 -26 6 -56q-10 0 -28 -0.5t-28 -0.5q-11 26 -11 54v22q0 56 56 97t124 41q82 0 130.5 -46t48.5 -104v-31q0 -91 -88 -149q98 -34 98 -141z" />
    <glyph glyph-name="uni10A6" unicode="&#x10a6;" horiz-adv-x="561" 
d="M302 546v36q0 31 -30 52t-72 21q-104 0 -104 -75v-34q0 -40 28.5 -61.5t77.5 -21.5q45 0 72.5 24.5t27.5 58.5zM153 257v-56q0 -69 38.5 -112.5t104.5 -43.5q68 0 106 44t38 117v43q0 71 -38 112.5t-106 41.5q-65 0 -104 -36t-39 -110zM361 584v-24q0 -54 -74 -107
q101 0 157.5 -53t56.5 -132v-77q0 -90 -55 -142.5t-150 -52.5q-92 0 -147 52.5t-55 142.5v74q0 106 94 157q-148 18 -148 140v22q0 52 42 87t116 35q79 0 121 -32.5t42 -89.5z" />
    <glyph glyph-name="uni10A7" unicode="&#x10a7;" horiz-adv-x="787" 
d="M378 249v277q0 60 -35 94.5t-95 34.5q-127 0 -127 -217v-166q0 -128 30 -177.5t97 -49.5q130 0 130 204zM727 443v-70q0 -249 -144 -377h-66q149 139 149 372v105q0 87 -27 133v-1q-27 50 -114 50q-65 0 -115 -48q29 -38 29 -81v-274q0 -116 -51 -186t-140 -70t-138.5 66
t-49.5 203v191q0 131 51 190.5t137 59.5q92 0 145 -68q64 68 146 68q94 0 141 -62t47 -201z" />
    <glyph glyph-name="uni10A8" unicode="&#x10a8;" horiz-adv-x="509" 
d="M449 457v-76q0 -177 -77 -376h-68q82 197 82 373v79q0 198 -131 198q-70 0 -101.5 -47.5t-31.5 -150.5v-79q0 -178 84 -373h-67q-79 197 -79 373v83q0 120 53.5 182.5t141.5 62.5q194 0 194 -249z" />
    <glyph glyph-name="uni10A9" unicode="&#x10a9;" horiz-adv-x="509" 
d="M449 228v-46q0 -84 -55 -135t-140 -51q-80 0 -137 48t-57 108v42q0 57 28 100h53q-19 -62 -19 -109v-22q0 -49 37 -83.5t95 -34.5q62 0 97 33.5t35 103.5v46q0 62 -31 106h1q-28 45 -80 45h-91v51h88q44 0 69.5 24.5t25.5 67.5v35q0 83 -90 98v50q152 -38 152 -149v-21
q0 -93 -107 -130q126 -39 126 -177z" />
    <glyph glyph-name="uni10AA" unicode="&#x10aa;" horiz-adv-x="999" 
d="M939 537v-48q0 -126 -123 -234h-59q122 104 122 238v39q0 45 -32 81.5t-76 36.5q-54 0 -83.5 -28.5t-29.5 -105.5v-103h-56v102q0 74 -25 107t-76 33q-47 0 -75 -33t-28 -103v-106h-55v108q0 73 -27 101t-86 28q-49 0 -78.5 -39.5t-29.5 -113.5v-36q0 -122 115.5 -217.5
t273.5 -127.5q155 -32 210 -110h-89q-89 75 -219 75q-87 0 -168 -46q-8 9 -21 27.5t-16 22.5q52 15 141 30q-289 154 -289 351v34q0 88 44.5 144.5t125.5 56.5q103 0 146 -108q34 113 125 113q90 0 127 -106q44 101 142 101q68 0 118.5 -50.5t50.5 -113.5z" />
    <glyph glyph-name="uni10AB" unicode="&#x10ab;" horiz-adv-x="524" 
d="M386 194v100q0 74 -35.5 110.5t-95.5 36.5q-54 0 -93.5 -42t-39.5 -107v-98q0 -72 36.5 -110.5t96.5 -38.5q57 0 94 38t37 111zM449 569v-387q0 -83 -56 -134.5t-138 -51.5q-86 0 -140.5 53t-54.5 145v98q0 82 57 140t139 58q91 0 131 -79l5 1v157q0 36 -37 61t-92 25
q-56 0 -88 -19.5t-32 -48.5v-30h-61v30q0 45 55.5 82t126.5 37q70 0 127.5 -40t57.5 -97z" />
    <glyph glyph-name="uni10AC" unicode="&#x10ac;" horiz-adv-x="524" 
d="M403 192v105q0 70 -36 107t-97 37q-70 0 -102 -35t-32 -110v-110q0 -66 36.5 -103.5t96.5 -37.5q66 0 100 38t34 109zM464 301v-116q0 -90 -52.5 -139.5t-141.5 -49.5q-83 0 -139 51t-56 139v389q0 59 31.5 90.5t80.5 31.5q17 0 78 -11t77 -11q51 0 108 28v-40
q-59 -35 -115 -35q-16 0 -59.5 9t-65.5 9q-43 0 -62 -16t-19 -58v-165q61 83 140 83q85 0 140 -53.5t55 -135.5z" />
    <glyph glyph-name="uni10AD" unicode="&#x10ad;" horiz-adv-x="795" 
d="M674 405v45q0 106 -25.5 155.5t-95.5 49.5q-63 0 -93.5 -34t-30.5 -107v-257h-62v257q0 73 -30 107t-93 34q-66 0 -94.5 -51.5t-28.5 -158.5v-43q0 -226 172 -396h-75q-158 163 -158 394v45q0 261 184 261q106 0 157 -111q42 111 152 111q95 0 138.5 -70t43.5 -179v-57
q0 -233 -153 -395h-76q168 165 168 400z" />
    <glyph glyph-name="uni10AE" unicode="&#x10ae;" horiz-adv-x="510" 
d="M450 254v-53q0 -92 -52.5 -148.5t-142.5 -56.5q-74 0 -134 50.5t-60 118.5v53q0 32 28 74h51q-18 -54 -18 -85v-26q0 -53 37.5 -94.5t95.5 -41.5q69 0 100.5 41t31.5 122v44q0 54 -28 90.5t-74 36.5h-69v51h69q37 0 58 22.5t21 65.5v16q0 42 -102 72q-97 27 -98 100h60
q3 -54 103 -77q98 -24 98 -91v-21q0 -65 -89 -114q114 -57 114 -149z" />
    <glyph glyph-name="uni10AF" unicode="&#x10af;" horiz-adv-x="524" 
d="M449 706v-540q0 -75 -54.5 -122.5t-135.5 -47.5q-92 0 -145.5 41t-53.5 124v21q0 25 10 51h58q-6 -34 -6 -50v-25q0 -53 41 -83t96 -30q58 0 92.5 36t34.5 89v484l-223 -48q55 -21 83.5 -52.5t28.5 -82.5q0 -138 -215 -138v50q83 1 121.5 18.5t38.5 61.5q0 61 -41 93.5
t-119 33.5v31z" />
    <glyph glyph-name="uni10B0" unicode="&#x10b0;" horiz-adv-x="795" 
d="M735 308v-24q0 -159 -136 -278h-68q146 131 146 277v25q0 60 -37 99t-87 39q-54 0 -89.5 -38t-35.5 -109v-100h-61v100q0 71 -37 109t-86 38q-56 0 -89.5 -38t-33.5 -100v-28q0 -138 146 -275h-76q-131 123 -131 281v22q0 83 27.5 153t85 126t156 87.5t230.5 31.5v-51
q-312 0 -419 -191q70 26 104 26q107 0 155 -114q59 114 154 114q76 0 129 -49.5t53 -132.5z" />
    <glyph glyph-name="uni10B1" unicode="&#x10b1;" horiz-adv-x="524" 
d="M464 248v-43q0 -89 -54 -149t-141 -60q-88 0 -141 54t-53 162v494h61v-494q0 -80 34 -123.5t99 -43.5q62 0 98 46.5t36 121.5v26q0 69 -60 129q-58 57 -58 102q0 43 22 74q18 -6 62 -17q-26 -28 -26 -57q0 -46 61 -101q60 -54 60 -121z" />
    <glyph glyph-name="uni10B2" unicode="&#x10b2;" horiz-adv-x="643" 
d="M583 381v-138q0 -105 -77.5 -176t-183.5 -71q-110 0 -186 70t-76 177v138q0 118 74.5 190.5t169.5 72.5l-28 62h87l-28 -62q105 0 176.5 -70.5t71.5 -192.5zM523 243v138q0 113 -46 168.5t-140 55.5l16 -312h-68l17 312q-85 0 -132.5 -56.5t-47.5 -167.5v-138
q0 -84 54 -141t146 -57q93 0 147 58t54 140z" />
    <glyph glyph-name="uni10B3" unicode="&#x10b3;" horiz-adv-x="598" 
d="M523 607v-413q0 -95 -47 -146.5t-135 -51.5q-93 0 -148.5 50t-55.5 136v43q0 46 21 82h56q-15 -53 -15 -102v-24q0 -62 39 -99t103 -37q65 0 93.5 37t28.5 115v410q0 20 -22.5 35.5t-60.5 15.5q-72 0 -72 -51v-169h-46v169q0 51 -60 51q-28 0 -45 -26h1q-17 -23 -36 -23
q-29 0 -62 35v55q42 -33 65 -33q12 0 34 18.5t36 18.5q62 0 90 -49q50 49 99 49q52 0 95.5 -29t43.5 -67z" />
    <glyph glyph-name="uni10B4" unicode="&#x10b4;" horiz-adv-x="780" 
d="M367 466v33q0 82 -28 119t-95 37q-68 0 -95.5 -34.5t-27.5 -118.5v-36q0 -77 30 -111t93 -34q62 0 92.5 34.5t30.5 110.5zM709 196v-30q0 -80 -65.5 -125t-179.5 -45q-131 0 -191.5 38.5t-61.5 129.5h60q1 -38 17.5 -63t46.5 -36.5t59.5 -15.5t69.5 -4q183 0 183 121v25
q0 59 -26 93.5t-67 34.5h-50v48h50q40 0 72.5 31t32.5 97v43q0 117 -121 117q-69 0 -130 -55q21 -46 21 -95v-39q0 -86 -52 -141t-133 -55q-78 0 -131 55.5t-53 140.5v36q0 93 45.5 148.5t138.5 55.5q84 0 147 -74q61 74 147 74q81 0 131.5 -48t50.5 -115v-43
q0 -63 -30 -98.5t-102 -56.5v-6q121 -23 121 -143z" />
    <glyph glyph-name="uni10B5" unicode="&#x10b5;" horiz-adv-x="524" 
d="M449 706v-553q0 -71 -54 -114t-141 -43q-82 0 -138 44t-56 118v9q0 40 19 74h60q-17 -36 -17 -77v-11q0 -108 132 -108q62 0 97 27.5t35 75.5v216q0 44 -51 98.5t-99 54.5q-47 0 -69 -21t-22 -55q0 -23 8 -61h-52q-11 32 -11 61q0 56 39 90t107 34q84 0 156 -106v202h-95
v45h152z" />
    <glyph glyph-name="uni10B6" unicode="&#x10b6;" horiz-adv-x="740" 
d="M680 533v-45q0 -116 -81 -222h-55q75 103 75 229v36q0 124 -108 124q-31 0 -47.5 -4t-33 -19t-23.5 -49.5t-7 -91.5v-102h-61v102q0 55 -8 90t-25 50t-33 19.5t-43 4.5q-52 0 -80.5 -40t-28.5 -111v-38q0 -131 83.5 -228t199.5 -133q109 -33 122 -110h-75q-35 82 -141 82
q-72 0 -127 -40q-4 8 -12.5 25.5t-14.5 27.5q37 17 120 27q-216 141 -216 349v38q0 80 45.5 141t122.5 61q99 0 141 -124q37 124 141 124q80 0 125 -45.5t45 -127.5z" />
    <glyph glyph-name="uni10B7" unicode="&#x10b7;" horiz-adv-x="525" 
d="M450 696v-520q0 -90 -47.5 -135t-147.5 -45q-78 0 -137 38v-1q-58 40 -58 120q0 37 15 77h59q-12 -36 -12 -90q0 -39 38 -67t95 -28q69 0 100.5 30.5t31.5 109.5v210q-43 -76 -131 -76q-71 0 -126 51t-55 129v51q0 67 65 146h68q-77 -93 -77 -159v-38q0 -53 37.5 -93
t87.5 -40q64 0 97.5 36.5t33.5 90.5v203h63z" />
    <glyph glyph-name="uni10B8" unicode="&#x10b8;" horiz-adv-x="560" 
d="M425 194v71q0 152 -143 152q-59 0 -101 -48t-42 -114v-52q0 -66 42.5 -112t99.5 -46q64 0 104 45t40 104zM485 547v-353q0 -85 -60 -141.5t-144 -56.5q-78 0 -141 57t-63 148v64q0 85 59 143.5t145 58.5q100 0 142 -77l5 1v154q0 74 -16.5 95t-63.5 21q-34 0 -52.5 -21.5
t-18.5 -58.5v-22h-47v22q0 40 -16.5 60t-56.5 20q-69 0 -69 -58v-73h-48v73q0 41 30.5 72t67.5 31q82 0 113 -76q41 76 105 76q67 0 98 -35.5t31 -123.5z" />
    <glyph glyph-name="uni10B9" unicode="&#x10b9;" horiz-adv-x="524" 
d="M366 521l-46 8q15 28 15 63q0 63 -110 63q-93 0 -94 -76v-208q60 82 138 82q94 0 144.5 -50.5t50.5 -147.5v-31q0 -111 -94 -218h-76q109 99 109 221v28q0 67 -33 107t-101 41q-57 -2 -97 -38.5t-41 -91.5v-267h-56v580q0 53 44 86.5t107 33.5q72 0 118 -30.5t46 -82.5
q0 -37 -24 -72z" />
    <glyph glyph-name="uni10BA" unicode="&#x10ba;" horiz-adv-x="577" 
d="M517 223v-17q0 -87 -64 -148.5t-159 -61.5q-103 0 -168.5 73t-65.5 174v180q0 168 66 273h56q-60 -118 -60 -273v-180q0 -78 51.5 -138t120.5 -60q67 0 114 46t47 115v15q0 126 -95 126h-69v49h69q42 0 68.5 25.5t26.5 73.5q0 21 -14.5 40.5t-36 35.5t-42.5 33t-36 40.5
t-16 51.5h51q2 -48 79 -89t77 -110q0 -57 -29.5 -83.5t-85.5 -38.5v-6q65 -16 90 -51t25 -95z" />
    <glyph glyph-name="uni10BB" unicode="&#x10bb;" horiz-adv-x="524" 
d="M386 191v101q0 60 -35.5 104.5t-96.5 44.5q-64 0 -98 -37.5t-34 -111.5v-104q0 -143 132 -143q60 0 96 38t36 108zM449 706v-518q0 -84 -54 -138t-141 -54q-88 0 -141 55t-53 145v100q0 87 46.5 140.5t147.5 53.5q69 0 132 -72v288h63z" />
    <glyph glyph-name="uni10BC" unicode="&#x10bc;" horiz-adv-x="546" 
d="M122 265v-71q0 -59 39 -104t103 -45q58 0 101 46.5t43 111.5v52q0 66 -41.5 114t-103.5 48q-141 0 -141 -152zM60 194v353q0 87 32 123t98 36q64 0 105 -76q35 76 113 76q38 0 68 -30.5t30 -72.5v-73h-46v73q0 58 -70 58q-74 0 -74 -80v-22h-48v22q0 37 -18 58.5
t-51 21.5q-49 0 -65 -20.5t-16 -95.5v-154l5 -1q39 77 141 77q87 0 145.5 -58.5t58.5 -143.5v-64q0 -90 -62 -147.5t-142 -57.5q-81 0 -142.5 56.5t-61.5 141.5z" />
    <glyph glyph-name="uni10BD" unicode="&#x10bd;" horiz-adv-x="510" 
d="M239 354h-30q-37 0 -69 20v-1q-30 20 -30 79q0 48 29 71.5t70 23.5h75v114h-83v45h134v-159h90v-40h-90v-41q0 -123 58 -169q57 -45 57 -113v-12q0 -78 -53 -127t-142 -49q-84 0 -139.5 55.5t-55.5 131.5q0 43 23 85h54q-14 -39 -14 -87q0 -52 36.5 -94t95.5 -42
q63 0 97.5 33t34.5 94v16q0 51 -52 102q-51 50 -51 174v43h-78q-49 0 -49 -52q0 -31 14.5 -45t48.5 -14h19v-42z" />
    <glyph glyph-name="uni10BE" unicode="&#x10be;" horiz-adv-x="524" 
d="M136 289v-101q0 -66 37.5 -104.5t95.5 -38.5q60 0 97 38t37 105v98q0 70 -36 112.5t-98 42.5q-63 0 -98 -38t-35 -114zM75 172v534h61v-289q69 73 133 73q96 0 145.5 -54t49.5 -137v-127q0 -73 -52 -124.5t-143 -51.5q-76 0 -135 51.5t-59 124.5z" />
    <glyph glyph-name="uni10BF" unicode="&#x10bf;" horiz-adv-x="510" 
d="M61 570v50l149 -20l14 106h50l-14 -110l170 -19v-51l-168 23q11 -122 100 -186q88 -62 88 -149v-36q0 -76 -53.5 -129t-141.5 -53q-77 0 -135.5 54t-58.5 125v42q0 48 22 100h56q-17 -68 -17 -100v-39q0 -60 38.5 -96.5t95.5 -36.5q62 0 96.5 33t34.5 99v37q0 75 -85 144
q-81 66 -92 193z" />
    <glyph glyph-name="uni10C0" unicode="&#x10c0;" horiz-adv-x="509" 
d="M449 158q0 -81 -52.5 -121.5t-142.5 -40.5q-193 0 -194 215h62q0 -83 28.5 -124.5t103.5 -41.5q63 0 97.5 26t34.5 75q0 120 -78 120h-79v48h79q33 0 49 15.5t16 56.5q0 33 -18 48.5t-61 15.5h-80v50h80q30 0 47.5 21t17.5 54q0 21 -2 30.5t-13 21.5t-35 16.5t-68 8
t-113 3.5v46q167 0 229 -27.5t62 -95.5q0 -60 -71 -104q86 -31 86 -87q0 -66 -84 -101q99 -35 99 -128z" />
    <glyph glyph-name="uni10C1" unicode="&#x10c1;" horiz-adv-x="509" 
d="M449 159q0 -78 -51 -120.5t-144 -42.5q-88 0 -141 50t-53 141v519h56v-522q1 -64 37.5 -101.5t101.5 -37.5q64 0 98.5 28.5t34.5 85.5q0 52 -19 77.5t-61 25.5h-50v46h50q39 0 59.5 19.5t20.5 53.5q0 28 -24 48.5t-71 20.5h-35v50h35q47 0 71 23.5t24 60.5q0 70 -130 71
v51q89 0 140 -30.5t51 -90.5q0 -78 -95 -107v-6q95 -17 95 -92q0 -77 -102 -97q102 -35 102 -124z" />
    <glyph glyph-name="uni10C2" unicode="&#x10c2;" horiz-adv-x="509" 
d="M122 456v-177q0 -112 133 -193q131 80 131 194v195q0 94 -32.5 137t-98.5 43q-65 0 -99 -46t-34 -153zM60 -26v49q97 0 163 45q-163 78 -163 212v195q0 130 51 180.5t144 50.5q95 0 144.5 -51t49.5 -180v-195q0 -135 -157 -212q52 -43 157 -45v-49q-90 0 -195 70
q-113 -70 -194 -70z" />
    <glyph glyph-name="uni10C3" unicode="&#x10c3;" horiz-adv-x="509" 
d="M449 228v-46q0 -81 -53 -133.5t-142 -52.5q-78 0 -136 46t-58 110v42q0 52 65 103l31 -34q-34 -32 -34 -78v-22q0 -46 33 -82t99 -36q59 0 95.5 31.5t36.5 105.5v46q0 67 -33 111.5t-77 44.5h-91v51h88q47 0 80 56t33 155h-250v-83h-62v133h375v-76q0 -134 -123 -211
q123 -39 123 -181z" />
    <glyph glyph-name="uni10C4" unicode="&#x10c4;" horiz-adv-x="509" 
d="M449 186v-28q0 -76 -52.5 -119t-141.5 -43t-142 52t-53 124q0 49 52 103l39 -35q-29 -40 -29 -70q0 -53 37.5 -89t95.5 -36q67 0 99 31t32 76v35q0 49 -22.5 72t-75.5 23h-30v51h30q98 0 98 190q-83 -64 -169 -64q-80 0 -118.5 32.5t-38.5 86.5q0 52 65 90t171 38v-51
q-96 0 -135 -17.5t-39 -62.5q0 -76 91 -76t236 110q0 -270 -119 -299q119 -41 119 -124z" />
    <glyph glyph-name="uni10C5" unicode="&#x10c5;" horiz-adv-x="546" 
d="M506 256h-57v-104q0 -78 -56.5 -117t-137.5 -39q-90 0 -142.5 43.5t-52.5 112.5q0 62 50.5 109t144.5 47h131v81h-131q-96 0 -145.5 43.5t-49.5 109.5q0 69 53.5 116.5t141.5 47.5q84 0 139 -45t55 -123v-100h57v-49h-57v-81h57v-52zM122 542q0 -48 33 -76t89 -28h142
v100q0 57 -34 87t-97 30q-66 0 -99.5 -30.5t-33.5 -82.5zM386 152v104h-131q-73 0 -103 -27t-30 -80q0 -45 37 -74.5t96 -29.5q131 0 131 107z" />
    <glyph glyph-name="uni10C6" unicode="&#x10c6;" horiz-adv-x="724" 
d="M604 345v187q0 73 -28.5 100.5t-77.5 27.5q-62 0 -85 -26.5t-23 -98.5v-190q0 -70 29 -95.5t79 -27.5q60 1 83 31.5t23 91.5zM227 711q89 0 136 -83q40 83 135 83q81 0 123.5 -38.5t42.5 -134.5v-193q0 -80 -47.5 -126.5t-117.5 -46.5q-60 0 -109 49v-76
q0 -147 -189 -149v47q132 0 132 101v388q0 73 -24 100.5t-82 27.5q-55 0 -80 -26.5t-25 -95.5v-193q0 -73 30.5 -100.5t81.5 -27.5v-45q-75 0 -124.5 43.5t-49.5 129.5v190q0 176 167 176z" />
    <glyph glyph-name="uni10D0" unicode="&#x10d0;" horiz-adv-x="470" 
d="M410 172q0 -68 -50.5 -120t-123.5 -52q-71 0 -123.5 49t-52.5 107q0 42 9 80l55 -4q-8 -35 -10 -76q2 -44 32.5 -77t89.5 -33q58 0 89 36t31 90q0 81 -95 137q-94 55 -94 128h54q0 -64 94 -116q93 -52 95 -149z" />
    <glyph glyph-name="uni10D1" unicode="&#x10d1;" horiz-adv-x="485" 
d="M115 196q-1 -57 35.5 -104t92.5 -47q53 0 90 43t37 109q0 59 -36.5 103t-87.5 55q-59 -10 -95 -54.5t-36 -104.5zM119 713h59q1 -73 72 -127q43 -33 43 -102q0 -44 -16 -98q59 -9 103.5 -64.5t44.5 -124.5q0 -81 -54 -139t-128 -58q-78 0 -130.5 58t-52.5 139
q0 73 47 128.5t124 64.5q16 56 16 92q0 68 -50 97q-78 45 -78 134z" />
    <glyph glyph-name="uni10D2" unicode="&#x10d2;" horiz-adv-x="512" 
d="M105 -62q0 -66 46 -119.5t99 -53.5q63 0 110 51.5t47 120.5q0 64 -45.5 115t-111.5 58q-53 -5 -99 -56t-46 -116zM462 -64q0 -86 -62.5 -151t-149.5 -65q-76 0 -138 66t-62 153q0 85 61.5 148t142.5 63q74 59 74 121q0 41 -24.5 64t-66.5 23q-47 0 -72 -22t-25 -58
q0 -12 2 -36h-43q-5 15 -5 33q0 57 38.5 91t104.5 34q65 0 103.5 -36.5t38.5 -92.5q0 -62 -76 -125q73 -27 116 -83t43 -127z" />
    <glyph glyph-name="uni10D3" unicode="&#x10d3;" horiz-adv-x="727" 
d="M612 202q0 52 -36 97.5t-85 45.5q-50 0 -87 -44t-37 -104q0 -66 36.5 -109t86.5 -43q47 0 84.5 42.5t37.5 114.5zM312 197q0 52 22 95q-36 54 -94 54q-64 0 -94.5 -41.5t-30.5 -112.5q0 -97 55.5 -170.5t149.5 -113.5q224 -102 224 -178h-73q0 44 -51.5 81t-118.5 48
q-74 -2 -147 -49v58l116 15v3q-97 47 -153.5 127t-56.5 179q0 85 50 141.5t131 56.5q65 0 120 -60q49 60 129 60q73 0 125 -57.5t52 -128.5q0 -86 -51 -145t-126 -59q-74 0 -126 58.5t-52 138.5z" />
    <glyph glyph-name="uni10D4" unicode="&#x10d4;" horiz-adv-x="484" 
d="M409 258v-395q0 -58 -48.5 -100.5t-126.5 -42.5q-73 0 -126 53.5t-53 122.5q0 52 38 130h52q-35 -91 -35 -130q0 -58 34 -94.5t90 -36.5q61 0 92.5 29t31.5 69v395q0 87 -109 87q-53 0 -79.5 -25.5t-26.5 -71.5q0 -44 15 -82h-52q-12 36 -12 81q0 62 43.5 102.5
t114.5 40.5q72 0 114.5 -37t42.5 -95z" />
    <glyph glyph-name="uni10D5" unicode="&#x10d5;" horiz-adv-x="480" 
d="M420 -58v-59q0 -67 -50 -115t-131 -48q-84 0 -134 55t-50 128q0 30 20 90h51q-16 -54 -16 -90q0 -60 36 -99t93 -39q62 0 94 31t32 87v64q0 36 -12 61t-31 37t-36.5 17t-35.5 5h-50v52h51q34 0 71.5 36.5t37.5 92.5q0 46 -29 71.5t-86 25.5q-48 0 -78.5 -22t-30.5 -68
q0 -24 10 -51h-49q-10 26 -10 50q0 56 46.5 96t109.5 40q81 0 126.5 -41t45.5 -98q0 -100 -121 -152v-8q126 -31 126 -149z" />
    <glyph glyph-name="uni10D6" unicode="&#x10d6;" horiz-adv-x="485" 
d="M71 578q0 -48 30.5 -79t68.5 -31q41 0 70.5 31.5t29.5 73.5q0 49 -29 78t-68 29q-44 0 -73 -27t-29 -75zM115 196q0 -67 38.5 -109t89.5 -42q49 0 88 43.5t39 106.5q0 61 -39 105.5t-88 44.5q-53 0 -90.5 -45t-37.5 -104zM322 576q0 -43 -21 -76.5t-89 -111.5l30 2
q73 0 128 -56.5t55 -137.5q0 -83 -55.5 -139.5t-126.5 -56.5q-73 0 -128 56t-55 140q0 63 29.5 107t124.5 132l-46 -7q-58 0 -103 42.5t-45 108.5q0 58 42 99.5t106 41.5q67 0 110.5 -43t43.5 -101z" />
    <glyph glyph-name="uni10D7" unicode="&#x10d7;" horiz-adv-x="752" 
d="M370 195q0 62 -39 106t-87 44q-54 0 -91.5 -44t-37.5 -106q0 -64 36.5 -107t91.5 -43q53 0 90 42.5t37 107.5zM425 196q0 -82 -54 -139t-128 -57q-77 0 -130 58t-53 140q0 78 53 135t130 57q71 0 125 -54l21 -28l24 32q36 50 109 50q74 0 122 -50.5t48 -117.5
q0 -124 -135 -222h-69q149 110 149 222q0 123 -114 123q-71 0 -114 -71q16 -39 16 -78z" />
    <glyph glyph-name="uni10D8" unicode="&#x10d8;" horiz-adv-x="485" 
d="M60 208q0 76 53 129t130 53q75 0 128.5 -53.5t53.5 -128.5q0 -101 -92 -208h-46q83 124 83 208q0 58 -38 98t-88 40q-53 0 -91 -39.5t-38 -97.5q0 -87 85 -209h-50q-90 108 -90 208z" />
    <glyph glyph-name="uni10D9" unicode="&#x10d9;" horiz-adv-x="465" 
d="M405 -34v-88q0 -69 -50.5 -113.5t-131.5 -44.5q-80 0 -131.5 48t-51.5 128q0 55 26 95h50q-21 -58 -21 -95q0 -61 33 -96t95 -35q54 0 90.5 30.5t36.5 82.5v86q0 45 -40 82t-94 37h-55v48h56q60 0 89.5 31t29.5 82q0 70 -107 136h84q78 -62 78 -132q0 -46 -25 -79
t-88 -59v-9q58 -13 92.5 -49t34.5 -86z" />
    <glyph glyph-name="uni10DA" unicode="&#x10da;" horiz-adv-x="944" 
d="M874 229q0 -98 -107 -205h-62q117 110 117 205q0 116 -103 116q-53 0 -82 -36.5t-29 -73.5v-100h-44v102q0 51 -24.5 82.5t-67.5 31.5q-42 0 -68.5 -32t-26.5 -82v-102h-44v102q0 33 -30 70.5t-83 37.5q-49 0 -77 -37t-28 -96q0 -111 100 -195.5t242 -120.5
q213 -66 230 -165h-79q0 44 -75 92t-197 48q-63 0 -146 -41l-5 57l125 19q-120 57 -185 137.5t-65 168.5q0 74 41 126t121 52q82 0 119 -63l12 -25h3l8 25q13 31 42.5 49.5t65.5 18.5q35 0 63.5 -18.5t41.5 -49.5l10 -25h4l10 25q16 28 47 45.5t71 17.5q155 0 155 -161z" />
    <glyph glyph-name="uni10DB" unicode="&#x10db;" horiz-adv-x="490" 
d="M239 345q-50 0 -87 -43.5t-37 -105.5q0 -64 36.5 -107.5t87.5 -43.5q44 0 84 45t40 105q0 62 -37.5 106t-86.5 44zM60 196q0 79 53 136.5t125 57.5q56 0 104 -45l21 -17v250q0 41 -32 69t-88 28q-44 0 -72.5 -22.5t-28.5 -60.5q0 -28 5 -50h-51q-9 29 -9 52
q0 53 44.5 89.5t110.5 36.5q84 0 128.5 -39.5t44.5 -102.5v-383q0 -77 -53 -136t-123 -59q-75 0 -127 57.5t-52 138.5z" />
    <glyph glyph-name="uni10DC" unicode="&#x10dc;" horiz-adv-x="500" 
d="M385 195q0 60 -37.5 105t-89.5 45q-51 0 -91 -43.5t-40 -106.5q0 -58 37.5 -104t94.5 -46q52 0 89 45.5t37 104.5zM440 195q0 -79 -54.5 -137t-126.5 -58q-78 0 -131 58t-53 137v389q0 116 166 116h58q45 0 45 30h62q0 -73 -107 -73h-73q-99 0 -99 -73v-260l20 24
q53 42 112 42q72 0 126.5 -59t54.5 -136z" />
    <glyph glyph-name="uni10DD" unicode="&#x10dd;" horiz-adv-x="735" 
d="M390 162h-48v43q0 70 -29.5 105t-81.5 35q-56 0 -86 -35.5t-30 -97.5q0 -108 138 -205h-72q-121 97 -121 205q0 83 45 130.5t125 47.5q78 0 116 -66l15 -32h9l12 33q33 65 120 65q72 0 122.5 -49t50.5 -130q0 -107 -121 -204h-77q142 97 142 207q0 131 -115 131
q-54 0 -84 -35t-30 -105v-43z" />
    <glyph glyph-name="uni10DE" unicode="&#x10de;" horiz-adv-x="485" 
d="M406 505q-2 -84 -112 -133v-6q131 -50 131 -179q0 -75 -52.5 -131t-128.5 -56t-130 53.5t-54 131.5q0 42 10 69h52q-7 -31 -7 -69q0 -59 32.5 -99t96.5 -40q60 0 93 38.5t33 103.5q0 154 -134 154h-38v51h38q56 0 87.5 33.5t31.5 78.5q0 64 -97 98q-96 35 -96 116h59
q0 -56 92 -94q93 -37 93 -120z" />
    <glyph glyph-name="uni10DF" unicode="&#x10df;" horiz-adv-x="500" 
d="M425 380v-479q0 -82 -52 -131.5t-129 -49.5q-78 0 -131 48.5t-53 118.5q0 31 11 58h53q-9 -31 -9 -57q0 -56 33.5 -89.5t95.5 -33.5q60 0 94.5 36t34.5 99v435h-8q-81 -44 -212 -62v-5q124 -40 124 -120q0 -47 -36.5 -74.5t-109.5 -27.5h-61v58l61 -10q95 2 95 58
q0 47 -45.5 72.5t-108.5 25.5v50q197 21 298 80h55z" />
    <glyph glyph-name="uni10E0" unicode="&#x10e0;" horiz-adv-x="733" 
d="M617 210q0 135 -113 135q-49 0 -79.5 -33.5t-30.5 -99.5v-47h-51v47q0 133 -112 133q-116 0 -116 -135q0 -116 153 -205h-79q-129 78 -129 205q0 73 56 149q86 98 116 132.5t69.5 84.5t52 75.5t18.5 52.5h68q-19 -41 -51 -85t-57.5 -72.5t-82 -87.5t-86.5 -91l27 9
q41 13 51 13q80 0 116 -81l7 -16h11l6 16q36 81 123 81q79 0 124 -50.5t45 -129.5q0 -126 -138 -206h-74q156 90 156 206z" />
    <glyph glyph-name="uni10E1" unicode="&#x10e1;" horiz-adv-x="500" 
d="M440 181q0 -75 -53.5 -128t-128.5 -53q-79 0 -131 58t-52 143v513h52v-503q0 -75 37.5 -120.5t93.5 -45.5q48 0 87.5 38t39.5 99q0 68 -64 108t-64 91q0 31 15 74h54q-22 -43 -22 -73q0 -34 68 -78t68 -123z" />
    <glyph glyph-name="uni10E2" unicode="&#x10e2;" horiz-adv-x="607" 
d="M50 52q0 129 70 224.5t170 101.5l-17 103h60l-18 -103q101 -6 171.5 -101.5t70.5 -224.5q0 -134 -75 -233t-179 -99t-178.5 99t-74.5 233zM273 60l19 288q-78 -7 -132.5 -95t-54.5 -201q0 -116 58 -201.5t140 -85.5t140.5 85.5t58.5 201.5q0 112 -55 200.5t-133 95.5
l19 -288h-60z" />
    <glyph glyph-name="uni10E3" unicode="&#x10e3;" horiz-adv-x="509" 
d="M439 254v-349q0 -86 -50 -136t-131 -50q-84 0 -136.5 53t-52.5 130q0 66 34 137h47q-26 -83 -26 -134q0 -58 35.5 -99t97.5 -41q52 0 91.5 36.5t39.5 101.5v366q0 45 -19 63.5t-45 18.5h-25q-34 0 -46.5 -20t-12.5 -79v-130h-43v130q0 58 -11.5 75.5t-36.5 17.5
q-15 0 -39 -11.5t-35 -11.5q-25 0 -45 10v59q40 -28 61 -28q14 0 33 13.5t30 13.5q40 0 57 -45l8 -23l11 23q21 45 84 45q59 0 92 -36t33 -100z" />
    <glyph glyph-name="uni10E4" unicode="&#x10e4;" horiz-adv-x="730" 
d="M355 194q0 62 -29 106.5t-87 44.5q-60 0 -92 -42.5t-32 -108.5q0 -67 29.5 -108t90.5 -41q55 0 87.5 42t32.5 107zM407 195q0 -85 -45 -140t-128 -55q-78 0 -126 55.5t-48 139.5t45 139.5t133 55.5q92 0 137 -80q62 80 135 80q78 0 119 -43.5t41 -129.5q0 -106 -98 -156
v-5q88 -37 88 -125v-60q0 -63 -53.5 -107t-143.5 -44q-93 0 -146 44.5t-53 98.5q0 27 7 52h54q-5 -37 -5 -52q0 -33 34 -65.5t109 -32.5q64 0 103 34.5t39 71.5v57q0 106 -78 106h-46v44h47q40 0 64 43t24 95q0 59 -26.5 94t-81.5 35q-62 0 -114 -69q13 -51 13 -81z" />
    <glyph glyph-name="uni10E5" unicode="&#x10e5;" horiz-adv-x="485" 
d="M410 713v-820q0 -73 -49.5 -123t-127.5 -50q-74 0 -126 52.5t-52 131.5q4 66 28 110h50q-23 -57 -23 -110q0 -64 30 -101.5t93 -37.5q61 0 93 35.5t32 92.5v315q0 53 -36.5 95t-92.5 42q-86 0 -86 -87q0 -34 25 -96h-51q-26 57 -26 96q0 57 37 94.5t101 37.5
q59 0 106 -45l18 -20h5v388h52z" />
    <glyph glyph-name="uni10E6" unicode="&#x10e6;" horiz-adv-x="724" 
d="M664 226q0 -110 -96 -212h-63q108 100 108 209q0 122 -116 122q-53 0 -82.5 -38t-29.5 -97v-54h-47v54q0 60 -29.5 97.5t-86.5 37.5q-107 0 -107 -134q0 -105 59.5 -182t194.5 -140q136 -63 138 -153h-70v6q0 94 -145 125h-7q-58 0 -140 -52l-3 59l111 22v8
q-193 111 -193 307q0 80 49 129.5t113 49.5q93 0 122 -71l16 -31h6l14 31q32 71 117 71q82 0 124.5 -43.5t42.5 -120.5z" />
    <glyph glyph-name="uni10E7" unicode="&#x10e7;" horiz-adv-x="495" 
d="M420 380v-493q0 -70 -48.5 -118.5t-132.5 -48.5q-74 0 -129 45t-55 118q0 24 9 69h54q-8 -56 -8 -69q0 -52 31.5 -85t97.5 -33q63 0 96 33.5t33 88.5v183h-5l-25 -25q-44 -29 -91 -29q-71 0 -120.5 51t-49.5 128q0 87 96 185h71q-113 -104 -113 -186q0 -60 32.5 -97
t83.5 -37q50 0 84.5 39.5t36.5 89.5v191h52z" />
    <glyph glyph-name="uni10E8" unicode="&#x10e8;" horiz-adv-x="505" 
d="M130 196q0 -63 36.5 -107t87.5 -44q49 0 86.5 44.5t37.5 106.5q0 58 -37 103.5t-86 45.5q-52 0 -88.5 -45t-36.5 -104zM430 586v-390q0 -82 -53 -139t-123 -57q-75 0 -127 58.5t-52 137.5q0 77 52.5 135.5t125.5 58.5q58 0 104 -40l16 -23h6v270q0 50 -15.5 67t-50.5 17
q-38 0 -55 -25t-17 -85v-88h-38v88q0 63 -13.5 86.5t-53.5 23.5q-62 0 -62 -61v-86h-44v80q0 49 25 77.5t75 28.5t77 -46l13 -28h4l15 29q29 45 88 45q103 0 103 -134z" />
    <glyph glyph-name="uni10E9" unicode="&#x10e9;" horiz-adv-x="500" 
d="M309 470h-52q58 64 58 129q0 37 -24.5 56.5t-69.5 19.5q-48 0 -71 -30t-23 -102v-214h5l18 19q40 42 118 42q73 0 122.5 -47.5t49.5 -128.5q0 -111 -111 -219h-84q140 104 140 218q0 63 -33 97.5t-84 34.5q-63 0 -102 -42t-39 -111v-192h-52v545q0 85 39.5 130t105.5 45
q64 0 104.5 -36t40.5 -85q0 -70 -56 -129z" />
    <glyph glyph-name="uni10EA" unicode="&#x10ea;" horiz-adv-x="559" 
d="M489 212q0 -52 -75 -96l-12 -7v-4l13 -5q84 -40 84 -158q0 -101 -61 -161.5t-153 -60.5q-100 0 -167.5 86t-67.5 256q4 177 94 323h56q-91 -140 -95 -323q0 -142 54 -219.5t131 -77.5q64 0 110 49.5t46 128.5q0 72 -29 106.5t-74 34.5h-77v45h77q38 0 65.5 26t27.5 58
q0 16 -18.5 33t-41 30.5t-41 40t-18.5 58.5v10h47v-8q0 -53 60 -80q65 -29 65 -85z" />
    <glyph glyph-name="uni10EB" unicode="&#x10eb;" horiz-adv-x="500" 
d="M373 198q0 57 -38.5 102t-94.5 45q-46 0 -85.5 -42.5t-39.5 -104.5q0 -65 36.5 -109t88.5 -44q57 0 95 44.5t38 108.5zM425 711v-512q0 -86 -54 -142.5t-129 -56.5q-77 0 -129.5 59t-52.5 139q0 77 53.5 134.5t127.5 57.5q66 0 103 -34l21 -19h8v374h52z" />
    <glyph glyph-name="uni10EC" unicode="&#x10ec;" horiz-adv-x="514" 
d="M381 210q0 63 -34.5 99t-83.5 36q-48 0 -85 -26t-37 -75q0 -41 28.5 -184.5t28.5 -233.5h6q17 40 64 121t79.5 150t33.5 113zM436 210q0 -82 -113 -258q-107 -166 -107 -210q0 -1 0.5 -2.5t0.5 -2.5h-57q2 40 2 59q0 88 -18 168q-88 382 -88 598q0 80 33.5 119t92.5 39
q54 0 76 -45l10 -20h5l10 20q23 45 79 45q45 0 73.5 -34.5t28.5 -74.5v-82h-48v80q0 36 -16 56t-44 20q-33 0 -48 -22t-15 -70v-83h-43v84q0 48 -16.5 69.5t-57.5 21.5q-33 0 -51 -24.5t-18 -88.5q0 -83 20 -249h10l6 10q42 57 125 57q70 0 119 -50t49 -130z" />
    <glyph glyph-name="uni10ED" unicode="&#x10ed;" horiz-adv-x="475" 
d="M299 366h108v-44h-114l-8 -61q-2 -24 -2 -34q0 -99 63 -166q74 -80 74 -151q0 -80 -50.5 -135t-130.5 -55t-132 55.5t-52 134.5q0 51 19 102h50q-14 -61 -14 -102q0 -61 37.5 -103t91.5 -42q58 0 92 43t34 102q0 63 -72 147q-61 72 -61 162q0 10 2 32l9 71h-76
q-29 0 -47.5 -15.5t-18.5 -47.5q0 -26 20.5 -42.5t46.5 -16.5h9v-44h-9q-50 0 -81.5 28.5t-31.5 75.5q0 48 30.5 77t81.5 29h81l16 100q5 35 5 39q0 67 -55 92q-66 29 -66 99q0 10 1 15h58q-1 -4 -1 -12q0 -25 18 -46.5t39 -35.5t39 -41.5t18 -62.5q0 -24 -4 -45z" />
    <glyph glyph-name="uni10EE" unicode="&#x10ee;" horiz-adv-x="500" 
d="M127 198q0 -64 38 -108.5t95 -44.5q52 0 88.5 45t36.5 108q0 61 -40 104t-85 43q-57 0 -95 -44.5t-38 -102.5zM75 199v512h52v-374h8l19 19q40 34 105 34q74 0 127.5 -57.5t53.5 -134.5q0 -79 -53 -138.5t-129 -59.5q-75 0 -129 56t-54 143z" />
    <glyph glyph-name="uni10EF" unicode="&#x10ef;" horiz-adv-x="392" 
d="M255 188l107 -89v-59l-133 112l-87 -137q110 -44 110 -136q0 -152 -222 -152v50q172 3 172 101q0 72 -128 125l121 175l-126 93v60l149 -119l57 85q13 16 13 33q0 24 -16 38.5t-40 14.5v37q105 0 105 -90q0 -27 -19 -54z" />
    <glyph glyph-name="uni10F0" unicode="&#x10f0;" horiz-adv-x="485" 
d="M425 174q0 -72 -48.5 -123t-133.5 -51q-81 0 -132 49.5t-51 119.5q0 47 16 67h45q-6 -24 -6 -54q0 -58 34 -97.5t94 -39.5q52 0 90 37.5t38 94.5q0 99 -196 142v43q31 -4 79.5 -21.5t58.5 -17.5q18 0 30.5 14.5t12.5 37.5q0 71 -182 103v44q25 -3 66 -15.5t53 -12.5
q43 0 43 59q0 46 -110 73q-109 27 -109 89h61q0 -37 104 -64q105 -27 105 -100q0 -38 -52 -78q71 -44 71 -103q0 -44 -60 -72q77 -55 79 -124z" />
    <glyph glyph-name="uni10F1" unicode="&#x10f1;" horiz-adv-x="485" 
d="M118 712h58q-61 -85 -61 -287v-207q0 -94 32.5 -133t114.5 -39q42 0 75.5 24.5t33.5 55.5q0 70 -82 70h-60v44h60q76 0 76 52q0 56 -82 56h-54v43h54q77 0 77 54q0 53 -82 53h-49v43h49q76 0 76 59q0 20 -43 56.5t-43 55.5h60q0 -18 40 -56t40 -53q0 -57 -69 -83
q75 -26 75 -75q0 -51 -75 -77q80 -23 80 -75q0 -49 -74 -75q80 -27 80 -93q0 -60 -50 -92.5t-113 -32.5q-104 0 -153 52.5t-49 166.5v210q0 179 58 283z" />
    <glyph glyph-name="uni10F2" unicode="&#x10f2;" horiz-adv-x="485" 
d="M115 213q0 -56 35 -103t93 -70q59 23 93 69t34 103q0 60 -39 97t-87 37q-47 0 -88 -36.5t-41 -96.5zM60 -66v50q102 0 125 39q-125 96 -125 188q0 84 52.5 131.5t131.5 47.5q76 0 128.5 -47t52.5 -133q0 -90 -123 -187q22 -39 123 -39v-51q-69 0 -182 77
q-111 -76 -183 -76z" />
    <glyph glyph-name="uni10F3" unicode="&#x10f3;" horiz-adv-x="485" 
d="M425 -61v-33q0 -89 -51.5 -137.5t-130.5 -48.5q-76 0 -129.5 46.5t-53.5 125.5q0 49 22 108h53q-20 -55 -20 -108q0 -55 36 -91t92 -36q60 0 93.5 37t33.5 104v33q0 72 -39 105.5t-107 33.5h-45v47h44q62 0 104.5 55t42.5 158h-244v-128h-49v172h348q0 -214 -123 -283
q64 -16 93.5 -53t29.5 -107z" />
    <glyph glyph-name="uni10F4" unicode="&#x10f4;" horiz-adv-x="485" 
d="M425 -20v-74q0 -84 -54 -135t-127 -51q-79 0 -131.5 53.5t-52.5 132.5q0 77 20 123l50 -4q-15 -55 -15 -119q0 -62 37 -101.5t92 -39.5t90.5 39t35.5 102v74q0 83 -34.5 126t-81.5 43h-64v54h65q44 0 78.5 45.5t34.5 121.5q-78 -25 -114 -25q-85 0 -139.5 49.5
t-54.5 121.5q0 79 64.5 138.5t152.5 59.5v-47q-56 0 -109.5 -43.5t-53.5 -99.5q0 -57 42.5 -95.5t96.5 -38.5q87 0 172 94v-91q0 -67 -26.5 -131t-83.5 -87q63 -28 86.5 -73.5t23.5 -121.5z" />
    <glyph glyph-name="uni10F5" unicode="&#x10f5;" horiz-adv-x="483" 
d="M115 562q0 -52 35 -77.5t92 -25.5h129v69q0 62 -35 104t-92 42q-54 0 -91.5 -33t-37.5 -79zM371 218v62h-134q-52 0 -87 -30.5t-35 -83.5q0 -47 37.5 -83.5t91.5 -36.5q57 0 92 47t35 125zM483 280h-58v-61q0 -110 -52 -164.5t-129 -54.5q-87 0 -135.5 52t-48.5 114
q0 73 51 118t127 45h133v83h-130q-82 0 -131.5 40t-49.5 110q0 60 50.5 109t133.5 49t132 -49t49 -143v-69h58v-47h-58v-83h58v-49z" />
    <glyph glyph-name="uni10F6" unicode="&#x10f6;" horiz-adv-x="712" 
d="M597 195q0 69 -28 110t-76 41q-51 0 -81 -32t-30 -84v-76q0 -49 30 -79t82 -30q48 0 75.5 40.5t27.5 109.5zM230 390q87 0 129 -79q42 79 131 79q79 0 120.5 -49.5t41.5 -145.5q0 -95 -41.5 -145t-117.5 -50q-77 0 -111 40v-175q0 -67 -38.5 -106t-99.5 -39v47
q84 0 84 96v367q0 52 -27 84t-72 32q-50 0 -82 -41.5t-32 -109.5q0 -63 35.5 -107t70.5 -44v-44q-67 0 -114 58.5t-47 137.5q0 96 43.5 145t126.5 49z" />
    <glyph glyph-name="uni10F7" unicode="&#x10f7;" horiz-adv-x="535" 
d="M390 16h54q29 -47 31 -114q-2 -77 -60 -129.5t-144 -52.5q-96 0 -153.5 52.5t-57.5 136.5q0 127 148 193t148 157q0 37 -25 64.5t-73 27.5q-43 0 -71 -22.5t-28 -49.5q0 -29 6 -55h-49q-4 15 -4 43q0 55 37.5 93t113.5 38q65 0 104 -40.5t39 -97.5q0 -108 -146 -177
q-145 -70 -145 -174q0 -54 41 -99t115 -45q67 0 110 44.5t43 93.5q0 52 -34 113z" />
    <glyph glyph-name="uni10F8" unicode="&#x10f8;" horiz-adv-x="495" 
d="M75 -113v493h52v-191q2 -51 36 -90t85 -39t83.5 37t32.5 97q0 82 -113 186h71q96 -98 96 -185q0 -77 -49.5 -128t-120.5 -51q-47 0 -91 29l-25 25h-5v-183q0 -55 33 -88.5t96 -33.5q66 0 97.5 33t31.5 85q0 13 -8 69h54q9 -45 9 -69q0 -73 -55 -118t-129 -45
q-83 0 -132 48t-49 119z" />
    <glyph glyph-name="uni10F9" unicode="&#x10f9;" horiz-adv-x="512" 
d="M407 182q0 66 -46 119.5t-99 53.5q-64 0 -110.5 -51.5t-46.5 -120.5q0 -65 45 -115.5t112 -57.5q53 5 99 56t46 116zM50 184q0 87 62.5 151.5t149.5 64.5q76 0 138 -66.5t62 -152.5q0 -84 -62 -147.5t-142 -63.5q-74 -59 -74 -121q0 -41 24.5 -64t66.5 -23q47 0 72 22
t25 58q0 12 -2 36h43q5 -15 5 -33q0 -57 -38.5 -91t-104.5 -34q-65 0 -103.5 36.5t-38.5 92.5q0 62 76 125q-73 27 -116 83t-43 127z" />
    <glyph glyph-name="uni10FA" unicode="&#x10fa;" horiz-adv-x="485" 
d="M398 -54l-47 -29q-53 78 -101 78q-62 0 -92 -59l-51 17q24 39 100 69q-147 58 -147 195q0 80 50.5 126.5t134.5 46.5q82 0 131 -42.5t49 -116.5q0 -41 -13 -81h-53q12 25 12 79q0 51 -34.5 83.5t-91.5 32.5q-58 0 -94 -35t-36 -94q0 -118 116 -165q118 -49 167 -105z" />
    <glyph glyph-name="uni10FB" unicode="&#x10fb;" horiz-adv-x="397" 
d="M49 -25v78h77v-78h-77zM49 332v77h77v-77h-77zM271 152v77h77v-77h-77z" />
    <glyph glyph-name="uni10FC" unicode="&#x10fc;" horiz-adv-x="243" 
d="M174 474q0 86 -60 86q-55 -8 -55 -90q0 -96 58 -96q57 0 57 100zM119 599q56 0 78 -32t22 -93q0 -68 -26.5 -104t-75.5 -36q-102 0 -102 139v161q0 87 88 87h115v-40l-126 1q-33 0 -33 -39v-81q28 37 60 37z" />
    <glyph glyph-name="uni2010" unicode="&#x2010;" horiz-adv-x="360" 
d="M356 196h-334v36h334v-36z" />
    <glyph glyph-name="uni2011" unicode="&#x2011;" horiz-adv-x="360" 
d="M356 196h-334v36h334v-36z" />
    <glyph glyph-name="figuredash" unicode="&#x2012;" horiz-adv-x="603" 
d="M632 237v-51h-632v51h632z" />
    <glyph glyph-name="endash" unicode="&#x2013;" horiz-adv-x="603" 
d="M624 179h-621v48h621v-48z" />
    <glyph glyph-name="emdash" unicode="&#x2014;" horiz-adv-x="1083" 
d="M1138 189h-1140v48h1140v-48z" />
    <glyph glyph-name="afii00208" unicode="&#x2015;" horiz-adv-x="610" 
d="M605 237v-51h-569v51h569z" />
    <glyph glyph-name="quoteleft" unicode="&#x2018;" horiz-adv-x="241" 
d="M106 588h54v-82h-78v73q0 101 72 144l10 -19q-58 -54 -58 -116z" />
    <glyph glyph-name="quoteright" unicode="&#x2019;" horiz-adv-x="241" 
d="M139 643h-55v80h78v-73q0 -100 -70 -143l-10 17q57 56 57 119z" />
    <glyph glyph-name="quotesinglbase" unicode="&#x201a;" horiz-adv-x="241" 
d="M139 2h-53v81h73v-72q0 -65 -17 -96.5t-52 -48.5l-8 9v3q30 15 41.5 42.5t15.5 81.5z" />
    <glyph glyph-name="quotereversed" unicode="&#x201b;" horiz-adv-x="241" 
d="M166 519l-7 -10q-25 12 -40 27.5t-20.5 37t-7 36.5t-1.5 44v69h72v-80h-54q2 -96 58 -124z" />
    <glyph glyph-name="quotedblleft" unicode="&#x201c;" horiz-adv-x="360" 
d="M271 581h39v-78h-82v70q0 62 16 95t51 51l9 -13q-22 -18 -27.5 -42.5t-5.5 -82.5zM113 581h37v-78h-81v70q0 64 14 94.5t51 51.5l10 -13q-32 -32 -32 -102q0 -3 0.5 -11t0.5 -12z" />
    <glyph glyph-name="quotedblright" unicode="&#x201d;" horiz-adv-x="360" 
d="M117 637h-56v83h73v-74q0 -67 -16 -97.5t-52 -45.5q-6 1 -6 10q28 18 40 45.5t17 78.5zM275 637h-53v83h71v-74q0 -67 -16 -97.5t-52 -45.5q-1 1 -4 5t-3 5q51 33 57 124z" />
    <glyph glyph-name="quotedblbase" unicode="&#x201e;" horiz-adv-x="379" 
d="M275 2h-39v81h77v-72q0 -65 -17 -97t-51 -48l-8 11q12 7 19 15t10.5 21t4.5 21.5t2 31.5t2 36zM110 2h-37v81h77v-72q0 -66 -15.5 -95t-52.5 -50l-7 11q7 4 11.5 9.5t8 10t6 13t4 13t2.5 16.5t1 17.5t1 22t1 23.5z" />
    <glyph glyph-name="uni201F" unicode="&#x201f;" horiz-adv-x="360" 
d="M294 517l-7 -12q-45 29 -56.5 60t-11.5 86v71h72v-79h-56q5 -99 59 -126zM140 517l-9 -12q-4 3 -13 8.5t-14 9t-13 8.5t-12 9t-8.5 9t-6.5 9.5t-2 9.5q0 4 1 14t1 15q0 8 -1 26t-1 28v71h73v-79h-53q0 -95 58 -126z" />
    <glyph glyph-name="bullet" unicode="&#x2022;" horiz-adv-x="379" 
d="M74 339q0 49 37.5 84t88.5 35q52 0 90 -35t38 -84q0 -48 -38 -83.5t-90 -35.5q-50 0 -88 35.5t-38 83.5z" />
    <glyph glyph-name="ellipsis" unicode="&#x2026;" horiz-adv-x="683" 
d="M119 2h-80v79h80v-79zM382 2h-82v79h82v-79zM644 2h-81v79h81v-79z" />
    <glyph glyph-name="uni2027" unicode="&#x2027;" horiz-adv-x="338" 
d="M216 248v-79h-81v79h81z" />
    <glyph glyph-name="guilsinglleft" unicode="&#x2039;" horiz-adv-x="360" 
d="M285 452l-147 -227l146 -224h-47l-170 224l170 227h48z" />
    <glyph glyph-name="guilsinglright" unicode="&#x203a;" horiz-adv-x="360" 
d="M75 1l147 227l-147 224h47l165 -222l-165 -229h-47z" />
    <glyph glyph-name="Euro" unicode="&#x20ac;" horiz-adv-x="603" 
d="M509 292l-4 -21l-3 -14q0 -5 -350 -5q53 -235 282 -235q86 0 150 33v-67q-71 -23 -140 -23q-131 11 -232 88t-134 204l-82 4q6 22 6 31l2 7h63v99h-71q0 30 8 38l68 4q29 128 131.5 202.5t242.5 87.5q94 -7 160 -35q-1 -12 -7.5 -36.5t-6.5 -26.5q-80 39 -148 39
q-111 0 -186 -60t-109 -171h392q-9 -36 -9 -42h-389v-99h369zM514 294h1h-1h-2h2z" />
    <glyph glyph-name="afii61352" unicode="&#x2116;" horiz-adv-x="882" 
d="M646 83h212v-48h-212v48zM750 401q-29 0 -48.5 -21.5t-19.5 -48.5q0 -31 19 -52t49 -21q35 0 53.5 19.5t18.5 52.5q0 29 -20 50t-52 21zM750 450q54 0 85.5 -36t31.5 -85q0 -53 -31 -87.5t-86 -34.5q-51 0 -81.5 35.5t-30.5 87.5q0 49 30.5 84.5t81.5 35.5zM634 668
q-24 0 -40.5 -21t-16.5 -46v-598h-49l-290 582v-466q0 -45 -29.5 -80.5t-73.5 -35.5q-42 0 -72 33.5t-35 78.5h44q2 -25 21 -42t38 -17q27 0 43.5 16.5t16.5 46.5v518h-98v49h148l289 -577v492q0 46 31.5 80.5t72.5 34.5q42 0 75.5 -31.5t37.5 -77.5h-50q-2 22 -21.5 41.5
t-41.5 19.5z" />
    <glyph glyph-name="trademark" unicode="&#x2122;" horiz-adv-x="1083" 
d="M319 328h-39v363h-155v35h349v-35h-155v-363zM597 328h-34v398h81l134 -386q10 24 34 100.5t35 99.5l5 15q55 168 56 171h79v-398h-33v352q-7 3 -15 3h-5q-4 0 -13 3q-11 -24 -49 -137.5t-42 -124.5q-17 -42 -30 -87l-3 -9h-38l-128 366q-16 -8 -28 -8h-6v-358z" />
    <glyph glyph-name="uni2219" unicode="&#x2219;" horiz-adv-x="271" 
d="M174 181h-71v72h71v-72z" />
  </font>
</defs>
</svg>
